  0
SECTION
  2
HEADER
  9
$ACADVER
  1
AC1009
  9
$INSBASE
 10
0.0
 20
0.0
 30
0.0
  9
$EXTMIN
 10
2812.7473263050638
 20
1207.018368708681
 30
0.0
  9
$EXTMAX
 10
4208.513606629318
 20
1896.9508895505739
 30
0.0
  9
$LIMMIN
 10
0.0
 20
0.0
  9
$LIMMAX
 10
420.0
 20
297.0
  9
$ORTHOMODE
 70
     0
  9
$REGENMODE
 70
     1
  9
$FILLMODE
 70
     1
  9
$QTEXTMODE
 70
     0
  9
$MIRRTEXT
 70
     0
  9
$DRAGMODE
 70
     2
  9
$LTSCALE
 40
1.0
  9
$OSMODE
 70
    39
  9
$ATTMODE
 70
     1
  9
$TEXTSIZE
 40
2.5
  9
$TRACEWID
 40
1.0
  9
$TEXTSTYLE
  7
STANDARD
  9
$CLAYER
  8
0
  9
$CELTYPE
  6
BYLAYER
  9
$CECOLOR
 62
   256
  9
$DIMSCALE
 40
1.0
  9
$DIMASZ
 40
2.5
  9
$DIMEXO
 40
0.625
  9
$DIMDLI
 40
3.75
  9
$DIMRND
 40
0.0
  9
$DIMDLE
 40
0.0
  9
$DIMEXE
 40
1.25
  9
$DIMTP
 40
0.0
  9
$DIMTM
 40
0.0
  9
$DIMTXT
 40
2.5
  9
$DIMCEN
 40
2.5
  9
$DIMTSZ
 40
0.0
  9
$DIMTOL
 70
     0
  9
$DIMLIM
 70
     0
  9
$DIMTIH
 70
     0
  9
$DIMTOH
 70
     0
  9
$DIMSE1
 70
     0
  9
$DIMSE2
 70
     0
  9
$DIMTAD
 70
     1
  9
$DIMZIN
 70
     8
  9
$DIMBLK
  1

  9
$DIMASO
 70
     1
  9
$DIMSHO
 70
     1
  9
$DIMPOST
  1

  9
$DIMAPOST
  1

  9
$DIMALT
 70
     0
  9
$DIMALTD
 70
     3
  9
$DIMALTF
 40
0.03937007874016
  9
$DIMLFAC
 40
1.0
  9
$DIMTOFL
 70
     1
  9
$DIMTVP
 40
0.0
  9
$DIMTIX
 70
     0
  9
$DIMSOXD
 70
     0
  9
$DIMSAH
 70
     0
  9
$DIMBLK1
  1

  9
$DIMBLK2
  1

  9
$DIMSTYLE
  2
ISO-25
  9
$DIMCLRD
 70
     0
  9
$DIMCLRE
 70
     0
  9
$DIMCLRT
 70
     0
  9
$DIMTFAC
 40
1.0
  9
$DIMGAP
 40
0.625
  9
$LUNITS
 70
     2
  9
$LUPREC
 70
     4
  9
$SKETCHINC
 40
1.0
  9
$FILLETRAD
 40
10.0
  9
$AUNITS
 70
     0
  9
$AUPREC
 70
     0
  9
$MENU
  1
.
  9
$ELEVATION
 40
0.0
  9
$PELEVATION
 40
0.0
  9
$THICKNESS
 40
0.0
  9
$LIMCHECK
 70
     0
  9
$BLIPMODE
 70
     0
  9
$CHAMFERA
 40
0.0
  9
$CHAMFERB
 40
0.0
  9
$SKPOLY
 70
     0
  9
$TDCREATE
 40
2453930.4544233908
  9
$TDUPDATE
 40
2455898.7344297338
  9
$TDINDWG
 40
1.6307857406999999
  9
$TDUSRTIMER
 40
1.6307824884
  9
$USRTIMER
 70
     1
  9
$ANGBASE
 50
0.0
  9
$ANGDIR
 70
     0
  9
$PDMODE
 70
     0
  9
$PDSIZE
 40
0.0
  9
$PLINEWID
 40
0.0
  9
$COORDS
 70
     1
  9
$SPLFRAME
 70
     0
  9
$SPLINETYPE
 70
     6
  9
$SPLINESEGS
 70
     8
  9
$ATTDIA
 70
     0
  9
$ATTREQ
 70
     1
  9
$HANDLING
 70
     1
  9
$HANDSEED
  5
B80A
  9
$SURFTAB1
 70
     6
  9
$SURFTAB2
 70
     6
  9
$SURFTYPE
 70
     6
  9
$SURFU
 70
     6
  9
$SURFV
 70
     6
  9
$UCSNAME
  2

  9
$UCSORG
 10
0.0
 20
0.0
 30
0.0
  9
$UCSXDIR
 10
1.0
 20
0.0
 30
0.0
  9
$UCSYDIR
 10
0.0
 20
1.0
 30
0.0
  9
$PUCSNAME
  2

  9
$PUCSORG
 10
0.0
 20
0.0
 30
0.0
  9
$PUCSXDIR
 10
1.0
 20
0.0
 30
0.0
  9
$PUCSYDIR
 10
0.0
 20
1.0
 30
0.0
  9
$USERI1
 70
     0
  9
$USERI2
 70
     0
  9
$USERI3
 70
     0
  9
$USERI4
 70
     0
  9
$USERI5
 70
     0
  9
$USERR1
 40
0.0
  9
$USERR2
 40
0.0
  9
$USERR3
 40
0.0
  9
$USERR4
 40
0.0
  9
$USERR5
 40
0.0
  9
$WORLDVIEW
 70
     1
  9
$SHADEDGE
 70
     3
  9
$SHADEDIF
 70
    70
  9
$TILEMODE
 70
     1
  9
$MAXACTVP
 70
    48
  9
$PLIMCHECK
 70
     0
  9
$PEXTMIN
 10
0.0
 20
0.0
 30
0.0
  9
$PEXTMAX
 10
0.0
 20
0.0
 30
0.0
  9
$PLIMMIN
 10
0.0
 20
0.0
  9
$PLIMMAX
 10
12.0
 20
9.0
  9
$UNITMODE
 70
     0
  9
$VISRETAIN
 70
     1
  9
$PLINEGEN
 70
     0
  9
$PSLTSCALE
 70
     1
  0
ENDSEC
  0
SECTION
  2
TABLES
  0
TABLE
  2
VPORT
 70
     1
  0
VPORT
  2
*ACTIVE
 70
     0
 10
0.0
 20
0.0
 11
1.0
 21
1.0
 12
3566.9193015055171
 22
1152.3928308217271
 13
0.0
 23
0.0
 14
10.0
 24
10.0
 15
10.0
 25
10.0
 16
0.0
 26
0.0
 36
1.0
 17
0.0
 27
0.0
 37
0.0
 40
1557.2572076254501
 41
1.302884615384615
 42
50.0
 43
0.0
 44
0.0
 50
0.0
 51
0.0
 71
     0
 72
  2000
 73
     1
 74
     3
 75
     0
 76
     0
 77
     0
 78
     0
  0
ENDTAB
  0
TABLE
  2
LTYPE
 70
     5
  0
LTYPE
  2
CONTINUOUS
 70
     0
  3
Solid line
 72
    65
 73
     0
 40
0.0
  0
LTYPE
  2
ACAD_ISO09W100
 70
     0
  3
ISO long-dash double-short-dash ____ __ __ ____
 72
    65
 73
     6
 40
45.0
 49
24.0
 49
-3.0
 49
6.0
 49
-3.0
 49
6.0
 49
-3.0
  0
LTYPE
  2
DASHED3
 70
     0
  3
------  ------  ------  ------  
 72
    65
 73
     2
 40
5.0
 49
3.75
 49
-1.25
  0
LTYPE
  2
DOT
 70
     0
  3
-   -   -   -   -   -   -   -   
 72
    65
 73
     2
 40
2.5
 49
0.625
 49
-1.875
  0
LTYPE
  2
DASHED1
 70
     0
  3
--  --  --  --  --  --  --  --  
 72
    65
 73
     2
 40
2.5
 49
1.25
 49
-1.25
  0
ENDTAB
  0
TABLE
  2
LAYER
 70
     4
  0
LAYER
  2
0
 70
     0
 62
     7
  6
CONTINUOUS
  0
LAYER
  2
DEFPOINTS
 70
     0
 62
     7
  6
CONTINUOUS
  0
LAYER
  2
_0-0_
 70
     0
 62
     7
  6
CONTINUOUS
  0
LAYER
  2
ADD_LINE
 70
     0
 62
     7
  6
CONTINUOUS
  0
ENDTAB
  0
TABLE
  2
STYLE
 70
     2
  0
STYLE
  2
STANDARD
 70
     0
 40
0.0
 41
1.0
 50
0.0
 71
     0
 42
2.5
  3
txt.shx
  4
extfont2.shx
  0
STYLE
  2

 70
     1
 40
0.0
 41
1.0
 50
0.0
 71
     0
 42
2.5
  3
ltypeshp.shx
  4

  0
ENDTAB
  0
TABLE
  2
VIEW
 70
     0
  0
ENDTAB
  0
TABLE
  2
UCS
 70
     0
  0
ENDTAB
  0
TABLE
  2
APPID
 70
     4
  0
APPID
  2
ACAD
 70
     0
  0
APPID
  2
ACAD_PSEXT
 70
     0
  0
APPID
  2
ACAD_EXEMPT_FROM_CAD_STANDARDS
 70
     0
  0
APPID
  2
ACAD_MLEADERVER
 70
     0
  0
ENDTAB
  0
TABLE
  2
DIMSTYLE
 70
     2
  0
DIMSTYLE
  2
ISO-25
 70
     0
  3

  4

  5

  6

  7

 40
1.0
 41
2.5
 42
0.625
 43
3.75
 44
1.25
 45
0.0
 46
0.0
 47
0.0
 48
0.0
140
2.5
141
2.5
142
0.0
143
0.03937007874016
144
1.0
145
0.0
146
1.0
147
0.625
 71
     0
 72
     0
 73
     0
 74
     0
 75
     0
 76
     0
 77
     1
 78
     8
170
     0
171
     3
172
     1
173
     0
174
     0
175
     0
176
     0
177
     0
178
     0
  0
DIMSTYLE
  2
STANDARD
 70
     0
  3

  4

  5

  6

  7

 40
1.0
 41
0.18
 42
0.0625
 43
0.38
 44
0.18
 45
0.0
 46
0.0
 47
0.0
 48
0.0
140
0.18
141
0.09
142
0.0
143
25.399999999999999
144
1.0
145
0.0
146
1.0
147
0.09
 71
     0
 72
     0
 73
     1
 74
     1
 75
     0
 76
     0
 77
     0
 78
     0
170
     0
171
     2
172
     0
173
     0
174
     0
175
     0
176
     0
177
     0
178
     0
  0
ENDTAB
  0
ENDSEC
  0
SECTION
  2
BLOCKS
  0
BLOCK
  8
0
  2
$MODEL_SPACE
 70
     0
 10
0.0
 20
0.0
 30
0.0
  3
$MODEL_SPACE
  1

  0
ENDBLK
  5
21
  8
0
  0
BLOCK
 67
     1
  8
0
  2
$PAPER_SPACE
 70
     0
 10
0.0
 20
0.0
 30
0.0
  3
$PAPER_SPACE
  1

  0
ENDBLK
  5
D5
 67
     1
  8
0
  0
BLOCK
  8
0
  2
A$C4BC71222
 70
     0
 10
0.0
 20
0.0
 30
0.0
  3
A$C4BC71222
  1

  0
POLYLINE
  8
0
  5
AB18
  66
     1
 10
0.000000
 20
0.000000
 30
0.000000
  70
     8
  0
VERTEX
  8
0
  5
AB19
 10
104.807
 20
100.000
 30
0.000000
  70
    32
  0
VERTEX
  8
0
  5
AB1A
 10
105.068
 20
98.6912
 30
0.000000
  70
    32
  0
VERTEX
  8
0
  5
AB1B
 10
105.329
 20
97.3831
 30
0.000000
  70
    32
  0
VERTEX
  8
0
  5
AB1C
 10
105.589
 20
96.0764
 30
0.000000
  70
    32
  0
VERTEX
  8
0
  5
AB1D
 10
105.846
 20
94.7717
 30
0.000000
  70
    32
  0
VERTEX
  8
0
  5
AB1E
 10
106.101
 20
93.4698
 30
0.000000
  70
    32
  0
VERTEX
  8
0
  5
AB1F
 10
106.352
 20
92.1714
 30
0.000000
  70
    32
  0
VERTEX
  8
0
  5
AB20
 10
106.600
 20
90.8771
 30
0.000000
  70
    32
  0
VERTEX
  8
0
  5
AB21
 10
106.842
 20
89.5876
 30
0.000000
  70
    32
  0
VERTEX
  8
0
  5
AB22
 10
107.079
 20
88.3036
 30
0.000000
  70
    32
  0
VERTEX
  8
0
  5
AB23
 10
107.310
 20
87.0258
 30
0.000000
  70
    32
  0
VERTEX
  8
0
  5
AB24
 10
107.533
 20
85.7549
 30
0.000000
  70
    32
  0
VERTEX
  8
0
  5
AB25
 10
107.749
 20
84.4916
 30
0.000000
  70
    32
  0
VERTEX
  8
0
  5
AB26
 10
107.957
 20
83.2365
 30
0.000000
  70
    32
  0
VERTEX
  8
0
  5
AB27
 10
108.156
 20
81.9904
 30
0.000000
  70
    32
  0
VERTEX
  8
0
  5
AB28
 10
108.346
 20
80.7540
 30
0.000000
  70
    32
  0
VERTEX
  8
0
  5
AB29
 10
108.525
 20
79.5279
 30
0.000000
  70
    32
  0
VERTEX
  8
0
  5
AB2A
 10
108.693
 20
78.3128
 30
0.000000
  70
    32
  0
VERTEX
  8
0
  5
AB2B
 10
108.849
 20
77.1094
 30
0.000000
  70
    32
  0
VERTEX
  8
0
  5
AB2C
 10
108.993
 20
75.9184
 30
0.000000
  70
    32
  0
VERTEX
  8
0
  5
AB2D
 10
109.124
 20
74.7405
 30
0.000000
  70
    32
  0
VERTEX
  8
0
  5
AB2E
 10
109.241
 20
73.5764
 30
0.000000
  70
    32
  0
VERTEX
  8
0
  5
AB2F
 10
109.343
 20
72.4267
 30
0.000000
  70
    32
  0
VERTEX
  8
0
  5
AB30
 10
109.431
 20
71.2922
 30
0.000000
  70
    32
  0
VERTEX
  8
0
  5
AB31
 10
109.502
 20
70.1736
 30
0.000000
  70
    32
  0
VERTEX
  8
0
  5
AB32
 10
109.557
 20
69.0714
 30
0.000000
  70
    32
  0
VERTEX
  8
0
  5
AB33
 10
109.595
 20
67.9865
 30
0.000000
  70
    32
  0
VERTEX
  8
0
  5
AB34
 10
109.615
 20
66.9195
 30
0.000000
  70
    32
  0
VERTEX
  8
0
  5
AB35
 10
109.616
 20
65.8712
 30
0.000000
  70
    32
  0
VERTEX
  8
0
  5
AB36
 10
109.598
 20
64.8421
 30
0.000000
  70
    32
  0
VERTEX
  8
0
  5
AB37
 10
109.560
 20
63.8329
 30
0.000000
  70
    32
  0
VERTEX
  8
0
  5
AB38
 10
109.501
 20
62.8445
 30
0.000000
  70
    32
  0
VERTEX
  8
0
  5
AB39
 10
109.421
 20
61.8774
 30
0.000000
  70
    32
  0
VERTEX
  8
0
  5
AB3A
 10
109.319
 20
60.9323
 30
0.000000
  70
    32
  0
VERTEX
  8
0
  5
AB3B
 10
109.194
 20
60.0100
 30
0.000000
  70
    32
  0
VERTEX
  8
0
  5
AB3C
 10
109.046
 20
59.1111
 30
0.000000
  70
    32
  0
VERTEX
  8
0
  5
AB3D
 10
108.874
 20
58.2363
 30
0.000000
  70
    32
  0
VERTEX
  8
0
  5
AB3E
 10
108.677
 20
57.3863
 30
0.000000
  70
    32
  0
VERTEX
  8
0
  5
AB3F
 10
108.454
 20
56.5618
 30
0.000000
  70
    32
  0
VERTEX
  8
0
  5
AB40
 10
108.205
 20
55.7635
 30
0.000000
  70
    32
  0
VERTEX
  8
0
  5
AB41
 10
107.930
 20
54.9920
 30
0.000000
  70
    32
  0
VERTEX
  8
0
  5
AB42
 10
107.626
 20
54.2481
 30
0.000000
  70
    32
  0
VERTEX
  8
0
  5
AB43
 10
107.295
 20
53.5324
 30
0.000000
  70
    32
  0
VERTEX
  8
0
  5
AB44
 10
106.935
 20
52.8457
 30
0.000000
  70
    32
  0
VERTEX
  8
0
  5
AB45
 10
106.545
 20
52.1886
 30
0.000000
  70
    32
  0
VERTEX
  8
0
  5
AB46
 10
106.124
 20
51.5618
 30
0.000000
  70
    32
  0
VERTEX
  8
0
  5
AB47
 10
105.673
 20
50.9660
 30
0.000000
  70
    32
  0
VERTEX
  8
0
  5
AB48
 10
105.190
 20
50.4019
 30
0.000000
  70
    32
  0
VERTEX
  8
0
  5
AB49
 10
104.675
 20
49.8701
 30
0.000000
  70
    32
  0
VERTEX
  8
0
  5
AB4A
 10
104.127
 20
49.3710
 30
0.000000
  70
    32
  0
VERTEX
  8
0
  5
AB4B
 10
103.547
 20
48.9039
 30
0.000000
  70
    32
  0
VERTEX
  8
0
  5
AB4C
 10
102.935
 20
48.4682
 30
0.000000
  70
    32
  0
VERTEX
  8
0
  5
AB4D
 10
102.293
 20
48.0631
 30
0.000000
  70
    32
  0
VERTEX
  8
0
  5
AB4E
 10
101.621
 20
47.6880
 30
0.000000
  70
    32
  0
VERTEX
  8
0
  5
AB4F
 10
100.920
 20
47.3422
 30
0.000000
  70
    32
  0
VERTEX
  8
0
  5
AB50
 10
100.190
 20
47.0249
 30
0.000000
  70
    32
  0
VERTEX
  8
0
  5
AB51
 10
99.4322
 20
46.7356
 30
0.000000
  70
    32
  0
VERTEX
  8
0
  5
AB52
 10
98.6472
 20
46.4734
 30
0.000000
  70
    32
  0
VERTEX
  8
0
  5
AB53
 10
97.8357
 20
46.2378
 30
0.000000
  70
    32
  0
VERTEX
  8
0
  5
AB54
 10
96.9984
 20
46.0280
 30
0.000000
  70
    32
  0
VERTEX
  8
0
  5
AB55
 10
96.1359
 20
45.8434
 30
0.000000
  70
    32
  0
VERTEX
  8
0
  5
AB56
 10
95.2490
 20
45.6832
 30
0.000000
  70
    32
  0
VERTEX
  8
0
  5
AB57
 10
94.3383
 20
45.5468
 30
0.000000
  70
    32
  0
VERTEX
  8
0
  5
AB58
 10
93.4045
 20
45.4335
 30
0.000000
  70
    32
  0
VERTEX
  8
0
  5
AB59
 10
92.4483
 20
45.3425
 30
0.000000
  70
    32
  0
VERTEX
  8
0
  5
AB5A
 10
91.4704
 20
45.2732
 30
0.000000
  70
    32
  0
VERTEX
  8
0
  5
AB5B
 10
90.4716
 20
45.2250
 30
0.000000
  70
    32
  0
VERTEX
  8
0
  5
AB5C
 10
89.4524
 20
45.1971
 30
0.000000
  70
    32
  0
VERTEX
  8
0
  5
AB5D
 10
88.4135
 20
45.1888
 30
0.000000
  70
    32
  0
VERTEX
  8
0
  5
AB5E
 10
87.3558
 20
45.1994
 30
0.000000
  70
    32
  0
VERTEX
  8
0
  5
AB5F
 10
86.2797
 20
45.2284
 30
0.000000
  70
    32
  0
VERTEX
  8
0
  5
AB60
 10
85.1861
 20
45.2748
 30
0.000000
  70
    32
  0
VERTEX
  8
0
  5
AB61
 10
84.0757
 20
45.3382
 30
0.000000
  70
    32
  0
VERTEX
  8
0
  5
AB62
 10
82.9490
 20
45.4177
 30
0.000000
  70
    32
  0
VERTEX
  8
0
  5
AB63
 10
81.8068
 20
45.5128
 30
0.000000
  70
    32
  0
VERTEX
  8
0
  5
AB64
 10
80.6499
 20
45.6226
 30
0.000000
  70
    32
  0
VERTEX
  8
0
  5
AB65
 10
79.4788
 20
45.7466
 30
0.000000
  70
    32
  0
VERTEX
  8
0
  5
AB66
 10
78.2942
 20
45.8840
 30
0.000000
  70
    32
  0
VERTEX
  8
0
  5
AB67
 10
77.0970
 20
46.0342
 30
0.000000
  70
    32
  0
VERTEX
  8
0
  5
AB68
 10
75.8876
 20
46.1964
 30
0.000000
  70
    32
  0
VERTEX
  8
0
  5
AB69
 10
74.6669
 20
46.3700
 30
0.000000
  70
    32
  0
VERTEX
  8
0
  5
AB6A
 10
73.4356
 20
46.5542
 30
0.000000
  70
    32
  0
VERTEX
  8
0
  5
AB6B
 10
72.1942
 20
46.7485
 30
0.000000
  70
    32
  0
VERTEX
  8
0
  5
AB6C
 10
70.9435
 20
46.9520
 30
0.000000
  70
    32
  0
VERTEX
  8
0
  5
AB6D
 10
69.6843
 20
47.1641
 30
0.000000
  70
    32
  0
VERTEX
  8
0
  5
AB6E
 10
68.4171
 20
47.3842
 30
0.000000
  70
    32
  0
VERTEX
  8
0
  5
AB6F
 10
67.1426
 20
47.6115
 30
0.000000
  70
    32
  0
VERTEX
  8
0
  5
AB70
 10
65.8617
 20
47.8454
 30
0.000000
  70
    32
  0
VERTEX
  8
0
  5
AB71
 10
64.5748
 20
48.0851
 30
0.000000
  70
    32
  0
VERTEX
  8
0
  5
AB72
 10
63.2828
 20
48.3300
 30
0.000000
  70
    32
  0
VERTEX
  8
0
  5
AB73
 10
61.9864
 20
48.5793
 30
0.000000
  70
    32
  0
VERTEX
  8
0
  5
AB74
 10
60.6861
 20
48.8325
 30
0.000000
  70
    32
  0
VERTEX
  8
0
  5
AB75
 10
59.3827
 20
49.0887
 30
0.000000
  70
    32
  0
VERTEX
  8
0
  5
AB76
 10
58.0770
 20
49.3473
 30
0.000000
  70
    32
  0
VERTEX
  8
0
  5
AB77
 10
56.7695
 20
49.6077
 30
0.000000
  70
    32
  0
VERTEX
  8
0
  5
AB78
 10
55.4610
 20
49.8691
 30
0.000000
  70
    32
  0
VERTEX
  8
0
  5
AB79
 10
54.1521
 20
50.1309
 30
0.000000
  70
    32
  0
VERTEX
  8
0
  5
AB7A
 10
52.8436
 20
50.3923
 30
0.000000
  70
    32
  0
VERTEX
  8
0
  5
AB7B
 10
51.5361
 20
50.6527
 30
0.000000
  70
    32
  0
VERTEX
  8
0
  5
AB7C
 10
50.2303
 20
50.9113
 30
0.000000
  70
    32
  0
VERTEX
  8
0
  5
AB7D
 10
48.9269
 20
51.1675
 30
0.000000
  70
    32
  0
VERTEX
  8
0
  5
AB7E
 10
47.6267
 20
51.4207
 30
0.000000
  70
    32
  0
VERTEX
  8
0
  5
AB7F
 10
46.3302
 20
51.6700
 30
0.000000
  70
    32
  0
VERTEX
  8
0
  5
AB80
 10
45.0382
 20
51.9149
 30
0.000000
  70
    32
  0
VERTEX
  8
0
  5
AB81
 10
43.7514
 20
52.1546
 30
0.000000
  70
    32
  0
VERTEX
  8
0
  5
AB82
 10
42.4704
 20
52.3885
 30
0.000000
  70
    32
  0
VERTEX
  8
0
  5
AB83
 10
41.1960
 20
52.6158
 30
0.000000
  70
    32
  0
VERTEX
  8
0
  5
AB84
 10
39.9288
 20
52.8359
 30
0.000000
  70
    32
  0
VERTEX
  8
0
  5
AB85
 10
38.6695
 20
53.0480
 30
0.000000
  70
    32
  0
VERTEX
  8
0
  5
AB86
 10
37.4188
 20
53.2515
 30
0.000000
  70
    32
  0
VERTEX
  8
0
  5
AB87
 10
36.1775
 20
53.4458
 30
0.000000
  70
    32
  0
VERTEX
  8
0
  5
AB88
 10
34.9461
 20
53.6300
 30
0.000000
  70
    32
  0
VERTEX
  8
0
  5
AB89
 10
33.7254
 20
53.8036
 30
0.000000
  70
    32
  0
VERTEX
  8
0
  5
AB8A
 10
32.5161
 20
53.9658
 30
0.000000
  70
    32
  0
VERTEX
  8
0
  5
AB8B
 10
31.3188
 20
54.1160
 30
0.000000
  70
    32
  0
VERTEX
  8
0
  5
AB8C
 10
30.1343
 20
54.2534
 30
0.000000
  70
    32
  0
VERTEX
  8
0
  5
AB8D
 10
28.9632
 20
54.3774
 30
0.000000
  70
    32
  0
VERTEX
  8
0
  5
AB8E
 10
27.8062
 20
54.4872
 30
0.000000
  70
    32
  0
VERTEX
  8
0
  5
AB8F
 10
26.6640
 20
54.5823
 30
0.000000
  70
    32
  0
VERTEX
  8
0
  5
AB90
 10
25.5374
 20
54.6618
 30
0.000000
  70
    32
  0
VERTEX
  8
0
  5
AB91
 10
24.4269
 20
54.7252
 30
0.000000
  70
    32
  0
VERTEX
  8
0
  5
AB92
 10
23.3333
 20
54.7716
 30
0.000000
  70
    32
  0
VERTEX
  8
0
  5
AB93
 10
22.2573
 20
54.8006
 30
0.000000
  70
    32
  0
VERTEX
  8
0
  5
AB94
 10
21.1995
 20
54.8112
 30
0.000000
  70
    32
  0
VERTEX
  8
0
  5
AB95
 10
20.1607
 20
54.8029
 30
0.000000
  70
    32
  0
VERTEX
  8
0
  5
AB96
 10
19.1415
 20
54.7750
 30
0.000000
  70
    32
  0
VERTEX
  8
0
  5
AB97
 10
18.1426
 20
54.7268
 30
0.000000
  70
    32
  0
VERTEX
  8
0
  5
AB98
 10
17.1647
 20
54.6575
 30
0.000000
  70
    32
  0
VERTEX
  8
0
  5
AB99
 10
16.2086
 20
54.5665
 30
0.000000
  70
    32
  0
VERTEX
  8
0
  5
AB9A
 10
15.2748
 20
54.4532
 30
0.000000
  70
    32
  0
VERTEX
  8
0
  5
AB9B
 10
14.3641
 20
54.3168
 30
0.000000
  70
    32
  0
VERTEX
  8
0
  5
AB9C
 10
13.4771
 20
54.1566
 30
0.000000
  70
    32
  0
VERTEX
  8
0
  5
AB9D
 10
12.6147
 20
53.9720
 30
0.000000
  70
    32
  0
VERTEX
  8
0
  5
AB9E
 10
11.7773
 20
53.7622
 30
0.000000
  70
    32
  0
VERTEX
  8
0
  5
AB9F
 10
10.9658
 20
53.5266
 30
0.000000
  70
    32
  0
VERTEX
  8
0
  5
ABA0
 10
10.1808
 20
53.2644
 30
0.000000
  70
    32
  0
VERTEX
  8
0
  5
ABA1
 10
9.42307
 20
52.9751
 30
0.000000
  70
    32
  0
VERTEX
  8
0
  5
ABA2
 10
8.69320
 20
52.6578
 30
0.000000
  70
    32
  0
VERTEX
  8
0
  5
ABA3
 10
7.99191
 20
52.3120
 30
0.000000
  70
    32
  0
VERTEX
  8
0
  5
ABA4
 10
7.31991
 20
51.9369
 30
0.000000
  70
    32
  0
VERTEX
  8
0
  5
ABA5
 10
6.67787
 20
51.5318
 30
0.000000
  70
    32
  0
VERTEX
  8
0
  5
ABA6
 10
6.06648
 20
51.0961
 30
0.000000
  70
    32
  0
VERTEX
  8
0
  5
ABA7
 10
5.48644
 20
50.6290
 30
0.000000
  70
    32
  0
VERTEX
  8
0
  5
ABA8
 10
4.93843
 20
50.1299
 30
0.000000
  70
    32
  0
VERTEX
  8
0
  5
ABA9
 10
4.42305
 20
49.5981
 30
0.000000
  70
    32
  0
VERTEX
  8
0
  5
ABAA
 10
3.94004
 20
49.0340
 30
0.000000
  70
    32
  0
VERTEX
  8
0
  5
ABAB
 10
3.48872
 20
48.4382
 30
0.000000
  70
    32
  0
VERTEX
  8
0
  5
ABAC
 10
3.06840
 20
47.8114
 30
0.000000
  70
    32
  0
VERTEX
  8
0
  5
ABAD
 10
2.67839
 20
47.1543
 30
0.000000
  70
    32
  0
VERTEX
  8
0
  5
ABAE
 10
2.31800
 20
46.4676
 30
0.000000
  70
    32
  0
VERTEX
  8
0
  5
ABAF
 10
1.98654
 20
45.7519
 30
0.000000
  70
    32
  0
VERTEX
  8
0
  5
ABB0
 10
1.68333
 20
45.0080
 30
0.000000
  70
    32
  0
VERTEX
  8
0
  5
ABB1
 10
1.40767
 20
44.2365
 30
0.000000
  70
    32
  0
VERTEX
  8
0
  5
ABB2
 10
1.15888
 20
43.4382
 30
0.000000
  70
    32
  0
VERTEX
  8
0
  5
ABB3
 10
0.936262
 20
42.6137
 30
0.000000
  70
    32
  0
VERTEX
  8
0
  5
ABB4
 10
0.739135
 20
41.7637
 30
0.000000
  70
    32
  0
VERTEX
  8
0
  5
ABB5
 10
0.566809
 20
40.8889
 30
0.000000
  70
    32
  0
VERTEX
  8
0
  5
ABB6
 10
0.418593
 20
39.9900
 30
0.000000
  70
    32
  0
VERTEX
  8
0
  5
ABB7
 10
0.293799
 20
39.0677
 30
0.000000
  70
    32
  0
VERTEX
  8
0
  5
ABB8
 10
0.191737
 20
38.1226
 30
0.000000
  70
    32
  0
VERTEX
  8
0
  5
ABB9
 10
0.111720
 20
37.1555
 30
0.000000
  70
    32
  0
VERTEX
  8
0
  5
ABBA
 10
0.0530579
 20
36.1671
 30
0.000000
  70
    32
  0
VERTEX
  8
0
  5
ABBB
 10
0.0150620
 20
35.1579
 30
0.000000
  70
    32
  0
VERTEX
  8
0
  5
ABBC
 10
-0.00295637
 20
34.1288
 30
0.000000
  70
    32
  0
VERTEX
  8
0
  5
ABBD
 10
-0.00168625
 20
33.0805
 30
0.000000
  70
    32
  0
VERTEX
  8
0
  5
ABBE
 10
0.0181835
 20
32.0135
 30
0.000000
  70
    32
  0
VERTEX
  8
0
  5
ABBF
 10
0.0559641
 20
30.9286
 30
0.000000
  70
    32
  0
VERTEX
  8
0
  5
ABC0
 10
0.110967
 20
29.8264
 30
0.000000
  70
    32
  0
VERTEX
  8
0
  5
ABC1
 10
0.182502
 20
28.7078
 30
0.000000
  70
    32
  0
VERTEX
  8
0
  5
ABC2
 10
0.269882
 20
27.5733
 30
0.000000
  70
    32
  0
VERTEX
  8
0
  5
ABC3
 10
0.372417
 20
26.4236
 30
0.000000
  70
    32
  0
VERTEX
  8
0
  5
ABC4
 10
0.489418
 20
25.2595
 30
0.000000
  70
    32
  0
VERTEX
  8
0
  5
ABC5
 10
0.620197
 20
24.0816
 30
0.000000
  70
    32
  0
VERTEX
  8
0
  5
ABC6
 10
0.764064
 20
22.8906
 30
0.000000
  70
    32
  0
VERTEX
  8
0
  5
ABC7
 10
0.920331
 20
21.6872
 30
0.000000
  70
    32
  0
VERTEX
  8
0
  5
ABC8
 10
1.08831
 20
20.4721
 30
0.000000
  70
    32
  0
VERTEX
  8
0
  5
ABC9
 10
1.26731
 20
19.2460
 30
0.000000
  70
    32
  0
VERTEX
  8
0
  5
ABCA
 10
1.45664
 20
18.0096
 30
0.000000
  70
    32
  0
VERTEX
  8
0
  5
ABCB
 10
1.65562
 20
16.7635
 30
0.000000
  70
    32
  0
VERTEX
  8
0
  5
ABCC
 10
1.86355
 20
15.5084
 30
0.000000
  70
    32
  0
VERTEX
  8
0
  5
ABCD
 10
2.07975
 20
14.2451
 30
0.000000
  70
    32
  0
VERTEX
  8
0
  5
ABCE
 10
2.30353
 20
12.9742
 30
0.000000
  70
    32
  0
VERTEX
  8
0
  5
ABCF
 10
2.53420
 20
11.6964
 30
0.000000
  70
    32
  0
VERTEX
  8
0
  5
ABD0
 10
2.77106
 20
10.4124
 30
0.000000
  70
    32
  0
VERTEX
  8
0
  5
ABD1
 10
3.01344
 20
9.12292
 30
0.000000
  70
    32
  0
VERTEX
  8
0
  5
ABD2
 10
3.26064
 20
7.82860
 30
0.000000
  70
    32
  0
VERTEX
  8
0
  5
ABD3
 10
3.51197
 20
6.53015
 30
0.000000
  70
    32
  0
VERTEX
  8
0
  5
ABD4
 10
3.76675
 20
5.22825
 30
0.000000
  70
    32
  0
VERTEX
  8
0
  5
ABD5
 10
4.02428
 20
3.92360
 30
0.000000
  70
    32
  0
VERTEX
  8
0
  5
ABD6
 10
4.28388
 20
2.61688
 30
0.000000
  70
    32
  0
VERTEX
  8
0
  5
ABD7
 10
4.54485
 20
1.30879
 30
0.000000
  70
    32
  0
VERTEX
  8
0
  5
ABD8
 10
4.80652
 20
-5.58030e-007
 30
0.000000
  70
    32
  0
SEQEND
  8
0
  5
ABD9
  0
ENDBLK
  5
1168
  8
0
  0
BLOCK
  8
0
  2
A$C5D721246
 70
     0
 10
0.0
 20
0.0
 30
0.0
  3
A$C5D721246
  1

  0
ARC
  5
31D6
  8
0
 10
-23.843024404199241
 20
30.395830437330119
 30
0.0
 40
38.631546216142141
 50
308.11127137445231
 51
330.81337304159831
  0
ENDBLK
  5
31DA
  8
0
  0
BLOCK
  8
0
  2
*D3
 70
     1
 10
0.0
 20
0.0
 30
0.0
  3
*D3
  1

  0
LINE
  5
AA81
  8
0
 62
     0
 10
2912.078835458788
 20
1822.0183723889199
 30
0.0
 11
2827.7473263050651
 21
1822.0183723889199
 31
0.0
  0
LINE
  5
AA82
  8
0
 62
     0
 10
2912.18207721824
 20
1207.0183723861001
 30
0.0
 11
2827.7473263050651
 21
1207.0183723861001
 31
0.0
  0
LINE
  5
AA83
  8
0
 62
     0
 10
2832.7473263050651
 20
1812.0183723889199
 30
0.0
 11
2832.7473263050651
 21
1217.0183723861001
 31
0.0
  0
SOLID
  5
AA84
  8
0
 62
     0
 10
2831.0806596383991
 20
1812.0183723889199
 30
0.0
 11
2834.4139929717321
 21
1812.0183723889199
 31
0.0
 12
2832.7473263050651
 22
1822.0183723889199
 32
0.0
 13
2832.7473263050651
 23
1822.0183723889199
 33
0.0
  0
SOLID
  5
AA85
  8
0
 62
     0
 10
2831.0806596383991
 20
1217.0183723861001
 30
0.0
 11
2834.4139929717321
 21
1217.0183723861001
 31
0.0
 12
2832.7473263050651
 22
1207.0183723861001
 32
0.0
 13
2832.7473263050651
 23
1207.0183723861001
 33
0.0
  0
INSERT
  5
AA86
  8
0
  2
*U47
 10
0.0
 20
0.0
 30
0.0
  0
POINT
  5
AA87
  8
DEFPOINTS
 62
     0
 10
2917.078835458788
 20
1822.0183723889199
 30
0.0
  0
POINT
  5
AA88
  8
DEFPOINTS
 62
     0
 10
2917.18207721824
 20
1207.0183723861001
 30
0.0
  0
POINT
  5
AA89
  8
DEFPOINTS
 62
     0
 10
2832.7473263050651
 20
1207.0183723861001
 30
0.0
  0
ENDBLK
  5
3348
  8
0
  0
BLOCK
  8
0
  2
*D4
 70
     1
 10
0.0
 20
0.0
 30
0.0
  3
*D4
  1

  0
LINE
  5
AA78
  8
0
 62
     0
 10
2912.2853039343722
 20
1802.0183723889199
 30
0.0
 11
2861.8382444638351
 21
1802.0183723889199
 31
0.0
  0
LINE
  5
AA79
  8
0
 62
     0
 10
2912.1820772183341
 20
1207.0183723861001
 30
0.0
 11
2861.8382444638351
 21
1207.0183723861001
 31
0.0
  0
LINE
  5
AA7A
  8
0
 62
     0
 10
2866.8382444638351
 20
1792.0183723889199
 30
0.0
 11
2866.8382444638351
 21
1217.0183723861001
 31
0.0
  0
SOLID
  5
AA7B
  8
0
 62
     0
 10
2865.1715777971681
 20
1792.0183723889199
 30
0.0
 11
2868.504911130502
 21
1792.0183723889199
 31
0.0
 12
2866.8382444638351
 22
1802.0183723889199
 32
0.0
 13
2866.8382444638351
 23
1802.0183723889199
 33
0.0
  0
SOLID
  5
AA7C
  8
0
 62
     0
 10
2865.1715777971681
 20
1217.0183723861001
 30
0.0
 11
2868.504911130502
 21
1217.0183723861001
 31
0.0
 12
2866.8382444638351
 22
1207.0183723861001
 32
0.0
 13
2866.8382444638351
 23
1207.0183723861001
 33
0.0
  0
INSERT
  5
AA7D
  8
0
  2
*U46
 10
0.0
 20
0.0
 30
0.0
  0
POINT
  5
AA7E
  8
DEFPOINTS
 62
     0
 10
2917.2853039343722
 20
1802.0183723889199
 30
0.0
  0
POINT
  5
AA7F
  8
DEFPOINTS
 62
     0
 10
2917.1820772183328
 20
1207.0183723861001
 30
0.0
  0
POINT
  5
AA80
  8
DEFPOINTS
 62
     0
 10
2866.8382444638351
 20
1207.0183723861001
 30
0.0
  0
ENDBLK
  5
3354
  8
0
  0
BLOCK
  8
0
  2
*D5
 70
     1
 10
0.0
 20
0.0
 30
0.0
  3
*D5
  1

  0
LINE
  5
AA6F
  8
0
 62
     0
 10
2910.9889904021629
 20
1815.3616484908571
 30
0.0
 11
2910.9889904021629
 21
1872.578771056799
 31
0.0
  0
LINE
  5
AA70
  8
0
 62
     0
 10
2980.9889939295572
 20
1800.4383833822719
 30
0.0
 11
2980.9889939295572
 21
1872.578771056799
 31
0.0
  0
LINE
  5
AA71
  8
0
 62
     0
 10
2920.9889904021629
 20
1867.578771056799
 30
0.0
 11
2970.9889939295572
 21
1867.578771056799
 31
0.0
  0
SOLID
  5
AA72
  8
0
 62
     0
 10
2920.9889904021629
 20
1869.245437723466
 30
0.0
 11
2920.9889904021629
 21
1865.9121043901321
 31
0.0
 12
2910.9889904021629
 22
1867.578771056799
 32
0.0
 13
2910.9889904021629
 23
1867.578771056799
 33
0.0
  0
SOLID
  5
AA73
  8
0
 62
     0
 10
2970.9889939295572
 20
1869.245437723466
 30
0.0
 11
2970.9889939295572
 21
1865.9121043901321
 31
0.0
 12
2980.9889939295572
 22
1867.578771056799
 32
0.0
 13
2980.9889939295572
 23
1867.578771056799
 33
0.0
  0
INSERT
  5
AA74
  8
0
  2
*U45
 10
0.0
 20
0.0
 30
0.0
  0
POINT
  5
AA75
  8
DEFPOINTS
 62
     0
 10
2910.9889904021629
 20
1810.3616484908571
 30
0.0
  0
POINT
  5
AA76
  8
DEFPOINTS
 62
     0
 10
2980.9889939295572
 20
1795.4383833822719
 30
0.0
  0
POINT
  5
AA77
  8
DEFPOINTS
 62
     0
 10
2980.9889939295572
 20
1867.578771056799
 30
0.0
  0
ENDBLK
  5
3360
  8
0
  0
BLOCK
  8
0
  2
A$C0F021332
 70
     0
 10
0.0
 20
0.0
 30
0.0
  3
A$C0F021332
  1

  0
LINE
  5
34FC
  8
0
 10
50.358268292738103
 20
42.967467366406687
 30
0.0
 11
50.358268292738103
 21
-449.03253263359318
 31
0.0
  0
LINE
  5
34FD
  8
0
 10
72.358268292738103
 20
42.967467366406687
 30
0.0
 11
72.358268292738103
 21
-449.03253263359318
 31
0.0
  0
LINE
  5
34FE
  8
0
 10
62.280346396287769
 20
45.700480717304337
 30
0.0
 11
62.358268292738103
 21
-449.03253263359318
 31
0.0
  0
LINE
  5
34FF
  8
0
 10
55.358268292738103
 20
47.404527203731412
 30
0.0
 11
55.358268292738103
 21
-449.03253263359318
 31
0.0
  0
LINE
  5
3500
  8
0
 10
35.448991004004263
 20
42.967467366406687
 30
0.0
 11
50.358268292738103
 21
42.967467366406687
 31
0.0
  0
ENDBLK
  5
3504
  8
0
  0
BLOCK
  8
0
  2
A$C2ABB1667
 70
     0
 10
0.0
 20
0.0
 30
0.0
  3
A$C2ABB1667
  1

  0
LINE
  5
3DA8
  8
0
 10
64.999997319826889
 20
495.99975505007842
 30
0.0
 11
64.999997319827344
 21
3.999755050078476
 31
0.0
  0
LINE
  5
3DA9
  8
0
 10
64.999997014536348
 20
4.0017827504829588
 30
0.0
 11
79.999997319827344
 21
4.0009607097684921
 31
0.0
  0
LINE
  5
3DAA
  8
0
 10
61.999997319826889
 20
499.3630536242697
 30
0.0
 11
61.999997319827798
 21
0.6364564758871439
 31
0.0
  0
LINE
  5
3DAB
  8
0
 10
64.999997319826889
 20
495.99975505007842
 30
0.0
 11
79.999997319827344
 21
495.99975505007842
 31
0.0
  0
LINE
  5
3DAC
  8
0
 10
39.999997319826889
 20
495.99975505007842
 30
0.0
 11
39.999997319826889
 21
3.999755050078476
 31
0.0
  0
LINE
  5
3DAD
  8
0
 10
51.922156861970507
 20
498.21570756421602
 30
0.0
 11
52.000346178123891
 21
1.78482286317029
 31
0.0
  0
LINE
  5
3DAE
  8
0
 10
45.05022407717297
 20
499.95276823794251
 30
0.0
 11
44.999997319826889
 21
0.0521009055606783
 31
0.0
  0
POLYLINE
  5
3DAF
  8
0
 10
50.274503436717168
 20
498.76085257908164
 30
0.0
 66
     1
 70
     8
  0
VERTEX
  8
0
  5
ABDA
 10
50.2745
 20
498.761
 30
0.000000
  70
    32
  0
VERTEX
  8
0
  5
ABDB
 10
50.1973
 20
498.814
 30
0.000000
  70
    32
  0
VERTEX
  8
0
  5
ABDC
 10
50.1186
 20
498.867
 30
0.000000
  70
    32
  0
VERTEX
  8
0
  5
ABDD
 10
50.0384
 20
498.918
 30
0.000000
  70
    32
  0
VERTEX
  8
0
  5
ABDE
 10
49.9569
 20
498.968
 30
0.000000
  70
    32
  0
VERTEX
  8
0
  5
ABDF
 10
49.8739
 20
499.018
 30
0.000000
  70
    32
  0
VERTEX
  8
0
  5
ABE0
 10
49.7896
 20
499.066
 30
0.000000
  70
    32
  0
VERTEX
  8
0
  5
ABE1
 10
49.7040
 20
499.113
 30
0.000000
  70
    32
  0
VERTEX
  8
0
  5
ABE2
 10
49.6171
 20
499.159
 30
0.000000
  70
    32
  0
VERTEX
  8
0
  5
ABE3
 10
49.5289
 20
499.204
 30
0.000000
  70
    32
  0
VERTEX
  8
0
  5
ABE4
 10
49.4395
 20
499.248
 30
0.000000
  70
    32
  0
VERTEX
  8
0
  5
ABE5
 10
49.3489
 20
499.291
 30
0.000000
  70
    32
  0
VERTEX
  8
0
  5
ABE6
 10
49.2572
 20
499.333
 30
0.000000
  70
    32
  0
VERTEX
  8
0
  5
ABE7
 10
49.1643
 20
499.373
 30
0.000000
  70
    32
  0
VERTEX
  8
0
  5
ABE8
 10
49.0702
 20
499.413
 30
0.000000
  70
    32
  0
VERTEX
  8
0
  5
ABE9
 10
48.9751
 20
499.451
 30
0.000000
  70
    32
  0
VERTEX
  8
0
  5
ABEA
 10
48.8790
 20
499.488
 30
0.000000
  70
    32
  0
VERTEX
  8
0
  5
ABEB
 10
48.7819
 20
499.524
 30
0.000000
  70
    32
  0
VERTEX
  8
0
  5
ABEC
 10
48.6837
 20
499.558
 30
0.000000
  70
    32
  0
VERTEX
  8
0
  5
ABED
 10
48.5847
 20
499.592
 30
0.000000
  70
    32
  0
VERTEX
  8
0
  5
ABEE
 10
48.4847
 20
499.624
 30
0.000000
  70
    32
  0
VERTEX
  8
0
  5
ABEF
 10
48.3839
 20
499.655
 30
0.000000
  70
    32
  0
VERTEX
  8
0
  5
ABF0
 10
48.2822
 20
499.684
 30
0.000000
  70
    32
  0
VERTEX
  8
0
  5
ABF1
 10
48.1797
 20
499.712
 30
0.000000
  70
    32
  0
VERTEX
  8
0
  5
ABF2
 10
48.0765
 20
499.739
 30
0.000000
  70
    32
  0
VERTEX
  8
0
  5
ABF3
 10
47.9725
 20
499.765
 30
0.000000
  70
    32
  0
VERTEX
  8
0
  5
ABF4
 10
47.8678
 20
499.790
 30
0.000000
  70
    32
  0
VERTEX
  8
0
  5
ABF5
 10
47.7625
 20
499.813
 30
0.000000
  70
    32
  0
VERTEX
  8
0
  5
ABF6
 10
47.6565
 20
499.835
 30
0.000000
  70
    32
  0
VERTEX
  8
0
  5
ABF7
 10
47.5500
 20
499.855
 30
0.000000
  70
    32
  0
VERTEX
  8
0
  5
ABF8
 10
47.4429
 20
499.874
 30
0.000000
  70
    32
  0
VERTEX
  8
0
  5
ABF9
 10
47.3353
 20
499.892
 30
0.000000
  70
    32
  0
VERTEX
  8
0
  5
ABFA
 10
47.2272
 20
499.909
 30
0.000000
  70
    32
  0
VERTEX
  8
0
  5
ABFB
 10
47.1187
 20
499.924
 30
0.000000
  70
    32
  0
VERTEX
  8
0
  5
ABFC
 10
47.0098
 20
499.937
 30
0.000000
  70
    32
  0
VERTEX
  8
0
  5
ABFD
 10
46.9005
 20
499.950
 30
0.000000
  70
    32
  0
VERTEX
  8
0
  5
ABFE
 10
46.7909
 20
499.961
 30
0.000000
  70
    32
  0
VERTEX
  8
0
  5
ABFF
 10
46.6810
 20
499.970
 30
0.000000
  70
    32
  0
VERTEX
  8
0
  5
AC00
 10
46.5709
 20
499.979
 30
0.000000
  70
    32
  0
VERTEX
  8
0
  5
AC01
 10
46.4606
 20
499.986
 30
0.000000
  70
    32
  0
VERTEX
  8
0
  5
AC02
 10
46.3500
 20
499.991
 30
0.000000
  70
    32
  0
VERTEX
  8
0
  5
AC03
 10
46.2394
 20
499.995
 30
0.000000
  70
    32
  0
VERTEX
  8
0
  5
AC04
 10
46.1286
 20
499.998
 30
0.000000
  70
    32
  0
VERTEX
  8
0
  5
AC05
 10
46.0178
 20
500.000
 30
0.000000
  70
    32
  0
VERTEX
  8
0
  5
AC06
 10
45.9070
 20
500.000
 30
0.000000
  70
    32
  0
VERTEX
  8
0
  5
AC07
 10
45.7962
 20
499.998
 30
0.000000
  70
    32
  0
VERTEX
  8
0
  5
AC08
 10
45.6854
 20
499.995
 30
0.000000
  70
    32
  0
VERTEX
  8
0
  5
AC09
 10
45.5748
 20
499.991
 30
0.000000
  70
    32
  0
VERTEX
  8
0
  5
AC0A
 10
45.4643
 20
499.986
 30
0.000000
  70
    32
  0
VERTEX
  8
0
  5
AC0B
 10
45.3539
 20
499.979
 30
0.000000
  70
    32
  0
VERTEX
  8
0
  5
AC0C
 10
45.2438
 20
499.971
 30
0.000000
  70
    32
  0
VERTEX
  8
0
  5
AC0D
 10
45.1339
 20
499.961
 30
0.000000
  70
    32
  0
VERTEX
  8
0
  5
AC0E
 10
45.0243
 20
499.950
 30
0.000000
  70
    32
  0
VERTEX
  8
0
  5
AC0F
 10
44.9150
 20
499.938
 30
0.000000
  70
    32
  0
VERTEX
  8
0
  5
AC10
 10
44.8061
 20
499.924
 30
0.000000
  70
    32
  0
VERTEX
  8
0
  5
AC11
 10
44.6975
 20
499.909
 30
0.000000
  70
    32
  0
VERTEX
  8
0
  5
AC12
 10
44.5894
 20
499.892
 30
0.000000
  70
    32
  0
VERTEX
  8
0
  5
AC13
 10
44.4818
 20
499.875
 30
0.000000
  70
    32
  0
VERTEX
  8
0
  5
AC14
 10
44.3747
 20
499.855
 30
0.000000
  70
    32
  0
VERTEX
  8
0
  5
AC15
 10
44.2682
 20
499.835
 30
0.000000
  70
    32
  0
VERTEX
  8
0
  5
AC16
 10
44.1622
 20
499.813
 30
0.000000
  70
    32
  0
VERTEX
  8
0
  5
AC17
 10
44.0569
 20
499.790
 30
0.000000
  70
    32
  0
VERTEX
  8
0
  5
AC18
 10
43.9522
 20
499.766
 30
0.000000
  70
    32
  0
VERTEX
  8
0
  5
AC19
 10
43.8482
 20
499.740
 30
0.000000
  70
    32
  0
VERTEX
  8
0
  5
AC1A
 10
43.7449
 20
499.713
 30
0.000000
  70
    32
  0
VERTEX
  8
0
  5
AC1B
 10
43.6424
 20
499.685
 30
0.000000
  70
    32
  0
VERTEX
  8
0
  5
AC1C
 10
43.5407
 20
499.655
 30
0.000000
  70
    32
  0
VERTEX
  8
0
  5
AC1D
 10
43.4399
 20
499.624
 30
0.000000
  70
    32
  0
VERTEX
  8
0
  5
AC1E
 10
43.3399
 20
499.592
 30
0.000000
  70
    32
  0
VERTEX
  8
0
  5
AC1F
 10
43.2408
 20
499.559
 30
0.000000
  70
    32
  0
VERTEX
  8
0
  5
AC20
 10
43.1427
 20
499.524
 30
0.000000
  70
    32
  0
VERTEX
  8
0
  5
AC21
 10
43.0455
 20
499.489
 30
0.000000
  70
    32
  0
VERTEX
  8
0
  5
AC22
 10
42.9494
 20
499.452
 30
0.000000
  70
    32
  0
VERTEX
  8
0
  5
AC23
 10
42.8542
 20
499.413
 30
0.000000
  70
    32
  0
VERTEX
  8
0
  5
AC24
 10
42.7602
 20
499.374
 30
0.000000
  70
    32
  0
VERTEX
  8
0
  5
AC25
 10
42.6673
 20
499.334
 30
0.000000
  70
    32
  0
VERTEX
  8
0
  5
AC26
 10
42.5755
 20
499.292
 30
0.000000
  70
    32
  0
VERTEX
  8
0
  5
AC27
 10
42.4848
 20
499.249
 30
0.000000
  70
    32
  0
VERTEX
  8
0
  5
AC28
 10
42.3954
 20
499.205
 30
0.000000
  70
    32
  0
VERTEX
  8
0
  5
AC29
 10
42.3072
 20
499.160
 30
0.000000
  70
    32
  0
VERTEX
  8
0
  5
AC2A
 10
42.2203
 20
499.114
 30
0.000000
  70
    32
  0
VERTEX
  8
0
  5
AC2B
 10
42.1346
 20
499.067
 30
0.000000
  70
    32
  0
VERTEX
  8
0
  5
AC2C
 10
42.0503
 20
499.019
 30
0.000000
  70
    32
  0
VERTEX
  8
0
  5
AC2D
 10
41.9674
 20
498.969
 30
0.000000
  70
    32
  0
VERTEX
  8
0
  5
AC2E
 10
41.8858
 20
498.919
 30
0.000000
  70
    32
  0
VERTEX
  8
0
  5
AC2F
 10
41.8056
 20
498.868
 30
0.000000
  70
    32
  0
VERTEX
  8
0
  5
AC30
 10
41.7269
 20
498.815
 30
0.000000
  70
    32
  0
VERTEX
  8
0
  5
AC31
 10
41.6496
 20
498.762
 30
0.000000
  70
    32
  0
VERTEX
  8
0
  5
AC32
 10
41.5738
 20
498.708
 30
0.000000
  70
    32
  0
VERTEX
  8
0
  5
AC33
 10
41.4995
 20
498.653
 30
0.000000
  70
    32
  0
VERTEX
  8
0
  5
AC34
 10
41.4268
 20
498.596
 30
0.000000
  70
    32
  0
VERTEX
  8
0
  5
AC35
 10
41.3557
 20
498.539
 30
0.000000
  70
    32
  0
VERTEX
  8
0
  5
AC36
 10
41.2861
 20
498.481
 30
0.000000
  70
    32
  0
VERTEX
  8
0
  5
AC37
 10
41.2181
 20
498.423
 30
0.000000
  70
    32
  0
VERTEX
  8
0
  5
AC38
 10
41.1518
 20
498.363
 30
0.000000
  70
    32
  0
VERTEX
  8
0
  5
AC39
 10
41.0872
 20
498.303
 30
0.000000
  70
    32
  0
VERTEX
  8
0
  5
AC3A
 10
41.0242
 20
498.242
 30
0.000000
  70
    32
  0
VERTEX
  8
0
  5
AC3B
 10
40.9630
 20
498.180
 30
0.000000
  70
    32
  0
VERTEX
  8
0
  5
AC3C
 10
40.9034
 20
498.117
 30
0.000000
  70
    32
  0
VERTEX
  8
0
  5
AC3D
 10
40.8456
 20
498.053
 30
0.000000
  70
    32
  0
VERTEX
  8
0
  5
AC3E
 10
40.7896
 20
497.989
 30
0.000000
  70
    32
  0
VERTEX
  8
0
  5
AC3F
 10
40.7354
 20
497.924
 30
0.000000
  70
    32
  0
VERTEX
  8
0
  5
AC40
 10
40.6830
 20
497.859
 30
0.000000
  70
    32
  0
VERTEX
  8
0
  5
AC41
 10
40.6324
 20
497.793
 30
0.000000
  70
    32
  0
VERTEX
  8
0
  5
AC42
 10
40.5836
 20
497.726
 30
0.000000
  70
    32
  0
VERTEX
  8
0
  5
AC43
 10
40.5367
 20
497.659
 30
0.000000
  70
    32
  0
VERTEX
  8
0
  5
AC44
 10
40.4917
 20
497.591
 30
0.000000
  70
    32
  0
VERTEX
  8
0
  5
AC45
 10
40.4486
 20
497.522
 30
0.000000
  70
    32
  0
VERTEX
  8
0
  5
AC46
 10
40.4074
 20
497.453
 30
0.000000
  70
    32
  0
VERTEX
  8
0
  5
AC47
 10
40.3681
 20
497.384
 30
0.000000
  70
    32
  0
VERTEX
  8
0
  5
AC48
 10
40.3307
 20
497.314
 30
0.000000
  70
    32
  0
VERTEX
  8
0
  5
AC49
 10
40.2953
 20
497.243
 30
0.000000
  70
    32
  0
VERTEX
  8
0
  5
AC4A
 10
40.2618
 20
497.172
 30
0.000000
  70
    32
  0
VERTEX
  8
0
  5
AC4B
 10
40.2303
 20
497.101
 30
0.000000
  70
    32
  0
VERTEX
  8
0
  5
AC4C
 10
40.2008
 20
497.029
 30
0.000000
  70
    32
  0
VERTEX
  8
0
  5
AC4D
 10
40.1733
 20
496.957
 30
0.000000
  70
    32
  0
VERTEX
  8
0
  5
AC4E
 10
40.1477
 20
496.885
 30
0.000000
  70
    32
  0
VERTEX
  8
0
  5
AC4F
 10
40.1242
 20
496.812
 30
0.000000
  70
    32
  0
VERTEX
  8
0
  5
AC50
 10
40.1027
 20
496.739
 30
0.000000
  70
    32
  0
VERTEX
  8
0
  5
AC51
 10
40.0833
 20
496.666
 30
0.000000
  70
    32
  0
VERTEX
  8
0
  5
AC52
 10
40.0658
 20
496.592
 30
0.000000
  70
    32
  0
VERTEX
  8
0
  5
AC53
 10
40.0504
 20
496.519
 30
0.000000
  70
    32
  0
VERTEX
  8
0
  5
AC54
 10
40.0370
 20
496.445
 30
0.000000
  70
    32
  0
VERTEX
  8
0
  5
AC55
 10
40.0257
 20
496.371
 30
0.000000
  70
    32
  0
VERTEX
  8
0
  5
AC56
 10
40.0165
 20
496.297
 30
0.000000
  70
    32
  0
VERTEX
  8
0
  5
AC57
 10
40.0093
 20
496.223
 30
0.000000
  70
    32
  0
VERTEX
  8
0
  5
AC58
 10
40.0041
 20
496.148
 30
0.000000
  70
    32
  0
VERTEX
  8
0
  5
AC59
 10
40.0010
 20
496.074
 30
0.000000
  70
    32
  0
VERTEX
  8
0
  5
AC5A
 10
40.0000
 20
496.000
 30
0.000000
  70
    32
  0
SEQEND
  8
0
  5
AC5B
  0
POLYLINE
  5
3DB0
  8
0
 10
53.657182701373145
 20
498.7136777311037
 30
0.0
 66
     1
 70
     8
  0
VERTEX
  8
0
  5
AC5C
 10
53.6572
 20
498.714
 30
0.000000
  70
    32
  0
VERTEX
  8
0
  5
AC5D
 10
53.7411
 20
498.768
 30
0.000000
  70
    32
  0
VERTEX
  8
0
  5
AC5E
 10
53.8266
 20
498.822
 30
0.000000
  70
    32
  0
VERTEX
  8
0
  5
AC5F
 10
53.9138
 20
498.874
 30
0.000000
  70
    32
  0
VERTEX
  8
0
  5
AC60
 10
54.0025
 20
498.926
 30
0.000000
  70
    32
  0
VERTEX
  8
0
  5
AC61
 10
54.0928
 20
498.976
 30
0.000000
  70
    32
  0
VERTEX
  8
0
  5
AC62
 10
54.1847
 20
499.026
 30
0.000000
  70
    32
  0
VERTEX
  8
0
  5
AC63
 10
54.2780
 20
499.074
 30
0.000000
  70
    32
  0
VERTEX
  8
0
  5
AC64
 10
54.3729
 20
499.122
 30
0.000000
  70
    32
  0
VERTEX
  8
0
  5
AC65
 10
54.4691
 20
499.168
 30
0.000000
  70
    32
  0
VERTEX
  8
0
  5
AC66
 10
54.5668
 20
499.213
 30
0.000000
  70
    32
  0
VERTEX
  8
0
  5
AC67
 10
54.6658
 20
499.257
 30
0.000000
  70
    32
  0
VERTEX
  8
0
  5
AC68
 10
54.7661
 20
499.300
 30
0.000000
  70
    32
  0
VERTEX
  8
0
  5
AC69
 10
54.8677
 20
499.342
 30
0.000000
  70
    32
  0
VERTEX
  8
0
  5
AC6A
 10
54.9706
 20
499.382
 30
0.000000
  70
    32
  0
VERTEX
  8
0
  5
AC6B
 10
55.0748
 20
499.422
 30
0.000000
  70
    32
  0
VERTEX
  8
0
  5
AC6C
 10
55.1801
 20
499.460
 30
0.000000
  70
    32
  0
VERTEX
  8
0
  5
AC6D
 10
55.2865
 20
499.497
 30
0.000000
  70
    32
  0
VERTEX
  8
0
  5
AC6E
 10
55.3941
 20
499.533
 30
0.000000
  70
    32
  0
VERTEX
  8
0
  5
AC6F
 10
55.5027
 20
499.567
 30
0.000000
  70
    32
  0
VERTEX
  8
0
  5
AC70
 10
55.6124
 20
499.600
 30
0.000000
  70
    32
  0
VERTEX
  8
0
  5
AC71
 10
55.7231
 20
499.632
 30
0.000000
  70
    32
  0
VERTEX
  8
0
  5
AC72
 10
55.8347
 20
499.663
 30
0.000000
  70
    32
  0
VERTEX
  8
0
  5
AC73
 10
55.9473
 20
499.693
 30
0.000000
  70
    32
  0
VERTEX
  8
0
  5
AC74
 10
56.0608
 20
499.721
 30
0.000000
  70
    32
  0
VERTEX
  8
0
  5
AC75
 10
56.1750
 20
499.747
 30
0.000000
  70
    32
  0
VERTEX
  8
0
  5
AC76
 10
56.2901
 20
499.773
 30
0.000000
  70
    32
  0
VERTEX
  8
0
  5
AC77
 10
56.4060
 20
499.797
 30
0.000000
  70
    32
  0
VERTEX
  8
0
  5
AC78
 10
56.5225
 20
499.820
 30
0.000000
  70
    32
  0
VERTEX
  8
0
  5
AC79
 10
56.6398
 20
499.842
 30
0.000000
  70
    32
  0
VERTEX
  8
0
  5
AC7A
 10
56.7577
 20
499.862
 30
0.000000
  70
    32
  0
VERTEX
  8
0
  5
AC7B
 10
56.8761
 20
499.881
 30
0.000000
  70
    32
  0
VERTEX
  8
0
  5
AC7C
 10
56.9952
 20
499.898
 30
0.000000
  70
    32
  0
VERTEX
  8
0
  5
AC7D
 10
57.1147
 20
499.914
 30
0.000000
  70
    32
  0
VERTEX
  8
0
  5
AC7E
 10
57.2348
 20
499.929
 30
0.000000
  70
    32
  0
VERTEX
  8
0
  5
AC7F
 10
57.3552
 20
499.942
 30
0.000000
  70
    32
  0
VERTEX
  8
0
  5
AC80
 10
57.4761
 20
499.954
 30
0.000000
  70
    32
  0
VERTEX
  8
0
  5
AC81
 10
57.5972
 20
499.965
 30
0.000000
  70
    32
  0
VERTEX
  8
0
  5
AC82
 10
57.7187
 20
499.974
 30
0.000000
  70
    32
  0
VERTEX
  8
0
  5
AC83
 10
57.8405
 20
499.982
 30
0.000000
  70
    32
  0
VERTEX
  8
0
  5
AC84
 10
57.9624
 20
499.988
 30
0.000000
  70
    32
  0
VERTEX
  8
0
  5
AC85
 10
58.0846
 20
499.993
 30
0.000000
  70
    32
  0
VERTEX
  8
0
  5
AC86
 10
58.2069
 20
499.997
 30
0.000000
  70
    32
  0
VERTEX
  8
0
  5
AC87
 10
58.3292
 20
499.999
 30
0.000000
  70
    32
  0
VERTEX
  8
0
  5
AC88
 10
58.4516
 20
500.000
 30
0.000000
  70
    32
  0
VERTEX
  8
0
  5
AC89
 10
58.5740
 20
499.999
 30
0.000000
  70
    32
  0
VERTEX
  8
0
  5
AC8A
 10
58.6964
 20
499.997
 30
0.000000
  70
    32
  0
VERTEX
  8
0
  5
AC8B
 10
58.8187
 20
499.994
 30
0.000000
  70
    32
  0
VERTEX
  8
0
  5
AC8C
 10
58.9409
 20
499.989
 30
0.000000
  70
    32
  0
VERTEX
  8
0
  5
AC8D
 10
59.0629
 20
499.983
 30
0.000000
  70
    32
  0
VERTEX
  8
0
  5
AC8E
 10
59.1847
 20
499.975
 30
0.000000
  70
    32
  0
VERTEX
  8
0
  5
AC8F
 10
59.3062
 20
499.966
 30
0.000000
  70
    32
  0
VERTEX
  8
0
  5
AC90
 10
59.4274
 20
499.956
 30
0.000000
  70
    32
  0
VERTEX
  8
0
  5
AC91
 10
59.5483
 20
499.944
 30
0.000000
  70
    32
  0
VERTEX
  8
0
  5
AC92
 10
59.6688
 20
499.931
 30
0.000000
  70
    32
  0
VERTEX
  8
0
  5
AC93
 10
59.7889
 20
499.916
 30
0.000000
  70
    32
  0
VERTEX
  8
0
  5
AC94
 10
59.9086
 20
499.900
 30
0.000000
  70
    32
  0
VERTEX
  8
0
  5
AC95
 10
60.0277
 20
499.883
 30
0.000000
  70
    32
  0
VERTEX
  8
0
  5
AC96
 10
60.1463
 20
499.865
 30
0.000000
  70
    32
  0
VERTEX
  8
0
  5
AC97
 10
60.2642
 20
499.845
 30
0.000000
  70
    32
  0
VERTEX
  8
0
  5
AC98
 10
60.3816
 20
499.823
 30
0.000000
  70
    32
  0
VERTEX
  8
0
  5
AC99
 10
60.4983
 20
499.801
 30
0.000000
  70
    32
  0
VERTEX
  8
0
  5
AC9A
 10
60.6142
 20
499.777
 30
0.000000
  70
    32
  0
VERTEX
  8
0
  5
AC9B
 10
60.7294
 20
499.751
 30
0.000000
  70
    32
  0
VERTEX
  8
0
  5
AC9C
 10
60.8438
 20
499.725
 30
0.000000
  70
    32
  0
VERTEX
  8
0
  5
AC9D
 10
60.9574
 20
499.697
 30
0.000000
  70
    32
  0
VERTEX
  8
0
  5
AC9E
 10
61.0701
 20
499.667
 30
0.000000
  70
    32
  0
VERTEX
  8
0
  5
AC9F
 10
61.1819
 20
499.637
 30
0.000000
  70
    32
  0
VERTEX
  8
0
  5
ACA0
 10
61.2927
 20
499.605
 30
0.000000
  70
    32
  0
VERTEX
  8
0
  5
ACA1
 10
61.4026
 20
499.572
 30
0.000000
  70
    32
  0
VERTEX
  8
0
  5
ACA2
 10
61.5114
 20
499.538
 30
0.000000
  70
    32
  0
VERTEX
  8
0
  5
ACA3
 10
61.6191
 20
499.502
 30
0.000000
  70
    32
  0
VERTEX
  8
0
  5
ACA4
 10
61.7258
 20
499.465
 30
0.000000
  70
    32
  0
VERTEX
  8
0
  5
ACA5
 10
61.8313
 20
499.427
 30
0.000000
  70
    32
  0
VERTEX
  8
0
  5
ACA6
 10
61.9356
 20
499.388
 30
0.000000
  70
    32
  0
VERTEX
  8
0
  5
ACA7
 10
62.0387
 20
499.348
 30
0.000000
  70
    32
  0
VERTEX
  8
0
  5
ACA8
 10
62.1405
 20
499.306
 30
0.000000
  70
    32
  0
VERTEX
  8
0
  5
ACA9
 10
62.2411
 20
499.263
 30
0.000000
  70
    32
  0
VERTEX
  8
0
  5
ACAA
 10
62.3403
 20
499.220
 30
0.000000
  70
    32
  0
VERTEX
  8
0
  5
ACAB
 10
62.4381
 20
499.175
 30
0.000000
  70
    32
  0
VERTEX
  8
0
  5
ACAC
 10
62.5346
 20
499.128
 30
0.000000
  70
    32
  0
VERTEX
  8
0
  5
ACAD
 10
62.6297
 20
499.081
 30
0.000000
  70
    32
  0
VERTEX
  8
0
  5
ACAE
 10
62.7232
 20
499.033
 30
0.000000
  70
    32
  0
VERTEX
  8
0
  5
ACAF
 10
62.8153
 20
498.984
 30
0.000000
  70
    32
  0
VERTEX
  8
0
  5
ACB0
 10
62.9059
 20
498.933
 30
0.000000
  70
    32
  0
VERTEX
  8
0
  5
ACB1
 10
62.9949
 20
498.882
 30
0.000000
  70
    32
  0
VERTEX
  8
0
  5
ACB2
 10
63.0823
 20
498.829
 30
0.000000
  70
    32
  0
VERTEX
  8
0
  5
ACB3
 10
63.1681
 20
498.776
 30
0.000000
  70
    32
  0
VERTEX
  8
0
  5
ACB4
 10
63.2522
 20
498.722
 30
0.000000
  70
    32
  0
VERTEX
  8
0
  5
ACB5
 10
63.3347
 20
498.666
 30
0.000000
  70
    32
  0
VERTEX
  8
0
  5
ACB6
 10
63.4155
 20
498.610
 30
0.000000
  70
    32
  0
VERTEX
  8
0
  5
ACB7
 10
63.4945
 20
498.553
 30
0.000000
  70
    32
  0
VERTEX
  8
0
  5
ACB8
 10
63.5718
 20
498.495
 30
0.000000
  70
    32
  0
VERTEX
  8
0
  5
ACB9
 10
63.6472
 20
498.436
 30
0.000000
  70
    32
  0
VERTEX
  8
0
  5
ACBA
 10
63.7209
 20
498.376
 30
0.000000
  70
    32
  0
VERTEX
  8
0
  5
ACBB
 10
63.7927
 20
498.315
 30
0.000000
  70
    32
  0
VERTEX
  8
0
  5
ACBC
 10
63.8626
 20
498.254
 30
0.000000
  70
    32
  0
VERTEX
  8
0
  5
ACBD
 10
63.9306
 20
498.191
 30
0.000000
  70
    32
  0
VERTEX
  8
0
  5
ACBE
 10
63.9968
 20
498.128
 30
0.000000
  70
    32
  0
VERTEX
  8
0
  5
ACBF
 10
64.0610
 20
498.065
 30
0.000000
  70
    32
  0
VERTEX
  8
0
  5
ACC0
 10
64.1232
 20
498.000
 30
0.000000
  70
    32
  0
VERTEX
  8
0
  5
ACC1
 10
64.1834
 20
497.935
 30
0.000000
  70
    32
  0
VERTEX
  8
0
  5
ACC2
 10
64.2417
 20
497.869
 30
0.000000
  70
    32
  0
VERTEX
  8
0
  5
ACC3
 10
64.2979
 20
497.803
 30
0.000000
  70
    32
  0
VERTEX
  8
0
  5
ACC4
 10
64.3520
 20
497.735
 30
0.000000
  70
    32
  0
VERTEX
  8
0
  5
ACC5
 10
64.4041
 20
497.668
 30
0.000000
  70
    32
  0
VERTEX
  8
0
  5
ACC6
 10
64.4541
 20
497.599
 30
0.000000
  70
    32
  0
VERTEX
  8
0
  5
ACC7
 10
64.5020
 20
497.530
 30
0.000000
  70
    32
  0
VERTEX
  8
0
  5
ACC8
 10
64.5478
 20
497.461
 30
0.000000
  70
    32
  0
VERTEX
  8
0
  5
ACC9
 10
64.5915
 20
497.391
 30
0.000000
  70
    32
  0
VERTEX
  8
0
  5
ACCA
 10
64.6330
 20
497.320
 30
0.000000
  70
    32
  0
VERTEX
  8
0
  5
ACCB
 10
64.6724
 20
497.250
 30
0.000000
  70
    32
  0
VERTEX
  8
0
  5
ACCC
 10
64.7095
 20
497.178
 30
0.000000
  70
    32
  0
VERTEX
  8
0
  5
ACCD
 10
64.7445
 20
497.106
 30
0.000000
  70
    32
  0
VERTEX
  8
0
  5
ACCE
 10
64.7773
 20
497.034
 30
0.000000
  70
    32
  0
VERTEX
  8
0
  5
ACCF
 10
64.8079
 20
496.962
 30
0.000000
  70
    32
  0
VERTEX
  8
0
  5
ACD0
 10
64.8362
 20
496.889
 30
0.000000
  70
    32
  0
VERTEX
  8
0
  5
ACD1
 10
64.8623
 20
496.816
 30
0.000000
  70
    32
  0
VERTEX
  8
0
  5
ACD2
 10
64.8862
 20
496.742
 30
0.000000
  70
    32
  0
VERTEX
  8
0
  5
ACD3
 10
64.9078
 20
496.669
 30
0.000000
  70
    32
  0
VERTEX
  8
0
  5
ACD4
 10
64.9272
 20
496.595
 30
0.000000
  70
    32
  0
VERTEX
  8
0
  5
ACD5
 10
64.9442
 20
496.520
 30
0.000000
  70
    32
  0
VERTEX
  8
0
  5
ACD6
 10
64.9591
 20
496.446
 30
0.000000
  70
    32
  0
VERTEX
  8
0
  5
ACD7
 10
64.9716
 20
496.372
 30
0.000000
  70
    32
  0
VERTEX
  8
0
  5
ACD8
 10
64.9819
 20
496.297
 30
0.000000
  70
    32
  0
VERTEX
  8
0
  5
ACD9
 10
64.9898
 20
496.222
 30
0.000000
  70
    32
  0
VERTEX
  8
0
  5
ACDA
 10
64.9955
 20
496.147
 30
0.000000
  70
    32
  0
VERTEX
  8
0
  5
ACDB
 10
64.9989
 20
496.073
 30
0.000000
  70
    32
  0
VERTEX
  8
0
  5
ACDC
 10
65.0000
 20
495.998
 30
0.000000
  70
    32
  0
SEQEND
  8
0
  5
ACDD
  0
ARC
  5
3DB1
  8
0
 10
52.000393199557493
 20
501.21468723661798
 30
0.0
 40
3.0
 50
234.87959494718021
 51
303.52241466344992
  0
POLYLINE
  5
3DB2
  8
0
 10
50.274503436717623
 20
1.2386575210753326
 30
0.0
 66
     1
 70
     8
  0
VERTEX
  8
0
  5
ACDE
 10
50.2745
 20
1.23866
 30
0.000000
  70
    32
  0
VERTEX
  8
0
  5
ACDF
 10
50.1973
 20
1.18533
 30
0.000000
  70
    32
  0
VERTEX
  8
0
  5
ACE0
 10
50.1186
 20
1.13298
 30
0.000000
  70
    32
  0
VERTEX
  8
0
  5
ACE1
 10
50.0384
 20
1.08161
 30
0.000000
  70
    32
  0
VERTEX
  8
0
  5
ACE2
 10
49.9569
 20
1.03126
 30
0.000000
  70
    32
  0
VERTEX
  8
0
  5
ACE3
 10
49.8739
 20
0.981928
 30
0.000000
  70
    32
  0
VERTEX
  8
0
  5
ACE4
 10
49.7896
 20
0.933642
 30
0.000000
  70
    32
  0
VERTEX
  8
0
  5
ACE5
 10
49.7040
 20
0.886415
 30
0.000000
  70
    32
  0
VERTEX
  8
0
  5
ACE6
 10
49.6171
 20
0.840265
 30
0.000000
  70
    32
  0
VERTEX
  8
0
  5
ACE7
 10
49.5289
 20
0.795207
 30
0.000000
  70
    32
  0
VERTEX
  8
0
  5
ACE8
 10
49.4395
 20
0.751257
 30
0.000000
  70
    32
  0
VERTEX
  8
0
  5
ACE9
 10
49.3489
 20
0.708429
 30
0.000000
  70
    32
  0
VERTEX
  8
0
  5
ACEA
 10
49.2572
 20
0.666739
 30
0.000000
  70
    32
  0
VERTEX
  8
0
  5
ACEB
 10
49.1643
 20
0.626201
 30
0.000000
  70
    32
  0
VERTEX
  8
0
  5
ACEC
 10
49.0702
 20
0.586829
 30
0.000000
  70
    32
  0
VERTEX
  8
0
  5
ACED
 10
48.9751
 20
0.548636
 30
0.000000
  70
    32
  0
VERTEX
  8
0
  5
ACEE
 10
48.8790
 20
0.511637
 30
0.000000
  70
    32
  0
VERTEX
  8
0
  5
ACEF
 10
48.7819
 20
0.475843
 30
0.000000
  70
    32
  0
VERTEX
  8
0
  5
ACF0
 10
48.6837
 20
0.441267
 30
0.000000
  70
    32
  0
VERTEX
  8
0
  5
ACF1
 10
48.5847
 20
0.407921
 30
0.000000
  70
    32
  0
VERTEX
  8
0
  5
ACF2
 10
48.4847
 20
0.375816
 30
0.000000
  70
    32
  0
VERTEX
  8
0
  5
ACF3
 10
48.3839
 20
0.344964
 30
0.000000
  70
    32
  0
VERTEX
  8
0
  5
ACF4
 10
48.2822
 20
0.315376
 30
0.000000
  70
    32
  0
VERTEX
  8
0
  5
ACF5
 10
48.1797
 20
0.287060
 30
0.000000
  70
    32
  0
VERTEX
  8
0
  5
ACF6
 10
48.0765
 20
0.260028
 30
0.000000
  70
    32
  0
VERTEX
  8
0
  5
ACF7
 10
47.9725
 20
0.234289
 30
0.000000
  70
    32
  0
VERTEX
  8
0
  5
ACF8
 10
47.8678
 20
0.209851
 30
0.000000
  70
    32
  0
VERTEX
  8
0
  5
ACF9
 10
47.7625
 20
0.186723
 30
0.000000
  70
    32
  0
VERTEX
  8
0
  5
ACFA
 10
47.6565
 20
0.164913
 30
0.000000
  70
    32
  0
VERTEX
  8
0
  5
ACFB
 10
47.5500
 20
0.144428
 30
0.000000
  70
    32
  0
VERTEX
  8
0
  5
ACFC
 10
47.4429
 20
0.125276
 30
0.000000
  70
    32
  0
VERTEX
  8
0
  5
ACFD
 10
47.3353
 20
0.107463
 30
0.000000
  70
    32
  0
VERTEX
  8
0
  5
ACFE
 10
47.2272
 20
0.0909955
 30
0.000000
  70
    32
  0
VERTEX
  8
0
  5
ACFF
 10
47.1187
 20
0.0758789
 30
0.000000
  70
    32
  0
VERTEX
  8
0
  5
AD00
 10
47.0098
 20
0.0621186
 30
0.000000
  70
    32
  0
VERTEX
  8
0
  5
AD01
 10
46.9005
 20
0.0497192
 30
0.000000
  70
    32
  0
VERTEX
  8
0
  5
AD02
 10
46.7909
 20
0.0386852
 30
0.000000
  70
    32
  0
VERTEX
  8
0
  5
AD03
 10
46.6810
 20
0.0290202
 30
0.000000
  70
    32
  0
VERTEX
  8
0
  5
AD04
 10
46.5709
 20
0.0207276
 30
0.000000
  70
    32
  0
VERTEX
  8
0
  5
AD05
 10
46.4606
 20
0.0138104
 30
0.000000
  70
    32
  0
VERTEX
  8
0
  5
AD06
 10
46.3500
 20
0.00827087
 30
0.000000
  70
    32
  0
VERTEX
  8
0
  5
AD07
 10
46.2394
 20
0.00411093
 30
0.000000
  70
    32
  0
VERTEX
  8
0
  5
AD08
 10
46.1286
 20
0.00133204
 30
0.000000
  70
    32
  0
VERTEX
  8
0
  5
AD09
 10
46.0178
 20
-6.48523e-005
 30
0.000000
  70
    32
  0
VERTEX
  8
0
  5
AD0A
 10
45.9070
 20
-7.92526e-005
 30
0.000000
  70
    32
  0
VERTEX
  8
0
  5
AD0B
 10
45.7962
 20
0.00128884
 30
0.000000
  70
    32
  0
VERTEX
  8
0
  5
AD0C
 10
45.6854
 20
0.00403895
 30
0.000000
  70
    32
  0
VERTEX
  8
0
  5
AD0D
 10
45.5748
 20
0.00817013
 30
0.000000
  70
    32
  0
VERTEX
  8
0
  5
AD0E
 10
45.4643
 20
0.0136810
 30
0.000000
  70
    32
  0
VERTEX
  8
0
  5
AD0F
 10
45.3539
 20
0.0205695
 30
0.000000
  70
    32
  0
VERTEX
  8
0
  5
AD10
 10
45.2438
 20
0.0288334
 30
0.000000
  70
    32
  0
VERTEX
  8
0
  5
AD11
 10
45.1339
 20
0.0384699
 30
0.000000
  70
    32
  0
VERTEX
  8
0
  5
AD12
 10
45.0243
 20
0.0494754
 30
0.000000
  70
    32
  0
VERTEX
  8
0
  5
AD13
 10
44.9150
 20
0.0618464
 30
0.000000
  70
    32
  0
VERTEX
  8
0
  5
AD14
 10
44.8061
 20
0.0755784
 30
0.000000
  70
    32
  0
VERTEX
  8
0
  5
AD15
 10
44.6975
 20
0.0906668
 30
0.000000
  70
    32
  0
VERTEX
  8
0
  5
AD16
 10
44.5894
 20
0.107106
 30
0.000000
  70
    32
  0
VERTEX
  8
0
  5
AD17
 10
44.4818
 20
0.124891
 30
0.000000
  70
    32
  0
VERTEX
  8
0
  5
AD18
 10
44.3747
 20
0.144016
 30
0.000000
  70
    32
  0
VERTEX
  8
0
  5
AD19
 10
44.2682
 20
0.164472
 30
0.000000
  70
    32
  0
VERTEX
  8
0
  5
AD1A
 10
44.1622
 20
0.186255
 30
0.000000
  70
    32
  0
VERTEX
  8
0
  5
AD1B
 10
44.0569
 20
0.209356
 30
0.000000
  70
    32
  0
VERTEX
  8
0
  5
AD1C
 10
43.9522
 20
0.233766
 30
0.000000
  70
    32
  0
VERTEX
  8
0
  5
AD1D
 10
43.8482
 20
0.259479
 30
0.000000
  70
    32
  0
VERTEX
  8
0
  5
AD1E
 10
43.7449
 20
0.286484
 30
0.000000
  70
    32
  0
VERTEX
  8
0
  5
AD1F
 10
43.6424
 20
0.314773
 30
0.000000
  70
    32
  0
VERTEX
  8
0
  5
AD20
 10
43.5407
 20
0.344335
 30
0.000000
  70
    32
  0
VERTEX
  8
0
  5
AD21
 10
43.4399
 20
0.375161
 30
0.000000
  70
    32
  0
VERTEX
  8
0
  5
AD22
 10
43.3399
 20
0.407239
 30
0.000000
  70
    32
  0
VERTEX
  8
0
  5
AD23
 10
43.2408
 20
0.440560
 30
0.000000
  70
    32
  0
VERTEX
  8
0
  5
AD24
 10
43.1427
 20
0.475110
 30
0.000000
  70
    32
  0
VERTEX
  8
0
  5
AD25
 10
43.0455
 20
0.510879
 30
0.000000
  70
    32
  0
VERTEX
  8
0
  5
AD26
 10
42.9494
 20
0.547853
 30
0.000000
  70
    32
  0
VERTEX
  8
0
  5
AD27
 10
42.8542
 20
0.586021
 30
0.000000
  70
    32
  0
VERTEX
  8
0
  5
AD28
 10
42.7602
 20
0.625369
 30
0.000000
  70
    32
  0
VERTEX
  8
0
  5
AD29
 10
42.6673
 20
0.665883
 30
0.000000
  70
    32
  0
VERTEX
  8
0
  5
AD2A
 10
42.5755
 20
0.707549
 30
0.000000
  70
    32
  0
VERTEX
  8
0
  5
AD2B
 10
42.4848
 20
0.750353
 30
0.000000
  70
    32
  0
VERTEX
  8
0
  5
AD2C
 10
42.3954
 20
0.794280
 30
0.000000
  70
    32
  0
VERTEX
  8
0
  5
AD2D
 10
42.3072
 20
0.839315
 30
0.000000
  70
    32
  0
VERTEX
  8
0
  5
AD2E
 10
42.2203
 20
0.885443
 30
0.000000
  70
    32
  0
VERTEX
  8
0
  5
AD2F
 10
42.1346
 20
0.932647
 30
0.000000
  70
    32
  0
VERTEX
  8
0
  5
AD30
 10
42.0503
 20
0.980911
 30
0.000000
  70
    32
  0
VERTEX
  8
0
  5
AD31
 10
41.9674
 20
1.03022
 30
0.000000
  70
    32
  0
VERTEX
  8
0
  5
AD32
 10
41.8858
 20
1.08055
 30
0.000000
  70
    32
  0
VERTEX
  8
0
  5
AD33
 10
41.8056
 20
1.13190
 30
0.000000
  70
    32
  0
VERTEX
  8
0
  5
AD34
 10
41.7269
 20
1.18423
 30
0.000000
  70
    32
  0
VERTEX
  8
0
  5
AD35
 10
41.6496
 20
1.23754
 30
0.000000
  70
    32
  0
VERTEX
  8
0
  5
AD36
 10
41.5738
 20
1.29180
 30
0.000000
  70
    32
  0
VERTEX
  8
0
  5
AD37
 10
41.4995
 20
1.34700
 30
0.000000
  70
    32
  0
VERTEX
  8
0
  5
AD38
 10
41.4268
 20
1.40311
 30
0.000000
  70
    32
  0
VERTEX
  8
0
  5
AD39
 10
41.3557
 20
1.46012
 30
0.000000
  70
    32
  0
VERTEX
  8
0
  5
AD3A
 10
41.2861
 20
1.51801
 30
0.000000
  70
    32
  0
VERTEX
  8
0
  5
AD3B
 10
41.2181
 20
1.57676
 30
0.000000
  70
    32
  0
VERTEX
  8
0
  5
AD3C
 10
41.1518
 20
1.63635
 30
0.000000
  70
    32
  0
VERTEX
  8
0
  5
AD3D
 10
41.0872
 20
1.69675
 30
0.000000
  70
    32
  0
VERTEX
  8
0
  5
AD3E
 10
41.0242
 20
1.75795
 30
0.000000
  70
    32
  0
VERTEX
  8
0
  5
AD3F
 10
40.9630
 20
1.81992
 30
0.000000
  70
    32
  0
VERTEX
  8
0
  5
AD40
 10
40.9034
 20
1.88265
 30
0.000000
  70
    32
  0
VERTEX
  8
0
  5
AD41
 10
40.8456
 20
1.94611
 30
0.000000
  70
    32
  0
VERTEX
  8
0
  5
AD42
 10
40.7896
 20
2.01027
 30
0.000000
  70
    32
  0
VERTEX
  8
0
  5
AD43
 10
40.7354
 20
2.07513
 30
0.000000
  70
    32
  0
VERTEX
  8
0
  5
AD44
 10
40.6830
 20
2.14065
 30
0.000000
  70
    32
  0
VERTEX
  8
0
  5
AD45
 10
40.6324
 20
2.20681
 30
0.000000
  70
    32
  0
VERTEX
  8
0
  5
AD46
 10
40.5836
 20
2.27360
 30
0.000000
  70
    32
  0
VERTEX
  8
0
  5
AD47
 10
40.5367
 20
2.34098
 30
0.000000
  70
    32
  0
VERTEX
  8
0
  5
AD48
 10
40.4917
 20
2.40893
 30
0.000000
  70
    32
  0
VERTEX
  8
0
  5
AD49
 10
40.4486
 20
2.47743
 30
0.000000
  70
    32
  0
VERTEX
  8
0
  5
AD4A
 10
40.4074
 20
2.54646
 30
0.000000
  70
    32
  0
VERTEX
  8
0
  5
AD4B
 10
40.3681
 20
2.61600
 30
0.000000
  70
    32
  0
VERTEX
  8
0
  5
AD4C
 10
40.3307
 20
2.68601
 30
0.000000
  70
    32
  0
VERTEX
  8
0
  5
AD4D
 10
40.2953
 20
2.75647
 30
0.000000
  70
    32
  0
VERTEX
  8
0
  5
AD4E
 10
40.2618
 20
2.82736
 30
0.000000
  70
    32
  0
VERTEX
  8
0
  5
AD4F
 10
40.2303
 20
2.89866
 30
0.000000
  70
    32
  0
VERTEX
  8
0
  5
AD50
 10
40.2008
 20
2.97034
 30
0.000000
  70
    32
  0
VERTEX
  8
0
  5
AD51
 10
40.1733
 20
3.04238
 30
0.000000
  70
    32
  0
VERTEX
  8
0
  5
AD52
 10
40.1477
 20
3.11474
 30
0.000000
  70
    32
  0
VERTEX
  8
0
  5
AD53
 10
40.1242
 20
3.18741
 30
0.000000
  70
    32
  0
VERTEX
  8
0
  5
AD54
 10
40.1027
 20
3.26037
 30
0.000000
  70
    32
  0
VERTEX
  8
0
  5
AD55
 10
40.0833
 20
3.33358
 30
0.000000
  70
    32
  0
VERTEX
  8
0
  5
AD56
 10
40.0658
 20
3.40701
 30
0.000000
  70
    32
  0
VERTEX
  8
0
  5
AD57
 10
40.0504
 20
3.48066
 30
0.000000
  70
    32
  0
VERTEX
  8
0
  5
AD58
 10
40.0370
 20
3.55448
 30
0.000000
  70
    32
  0
VERTEX
  8
0
  5
AD59
 10
40.0257
 20
3.62846
 30
0.000000
  70
    32
  0
VERTEX
  8
0
  5
AD5A
 10
40.0165
 20
3.70256
 30
0.000000
  70
    32
  0
VERTEX
  8
0
  5
AD5B
 10
40.0093
 20
3.77677
 30
0.000000
  70
    32
  0
VERTEX
  8
0
  5
AD5C
 10
40.0041
 20
3.85106
 30
0.000000
  70
    32
  0
VERTEX
  8
0
  5
AD5D
 10
40.0010
 20
3.92539
 30
0.000000
  70
    32
  0
VERTEX
  8
0
  5
AD5E
 10
40.0000
 20
3.99976
 30
0.000000
  70
    32
  0
SEQEND
  8
0
  5
AD5F
  0
POLYLINE
  5
3DB3
  8
0
 10
53.657182701373607
 20
1.2858323690532587
 30
0.0
 66
     1
 70
     8
  0
VERTEX
  8
0
  5
AD60
 10
53.6572
 20
1.28583
 30
0.000000
  70
    32
  0
VERTEX
  8
0
  5
AD61
 10
53.7411
 20
1.23130
 30
0.000000
  70
    32
  0
VERTEX
  8
0
  5
AD62
 10
53.8266
 20
1.17773
 30
0.000000
  70
    32
  0
VERTEX
  8
0
  5
AD63
 10
53.9138
 20
1.12516
 30
0.000000
  70
    32
  0
VERTEX
  8
0
  5
AD64
 10
54.0025
 20
1.07359
 30
0.000000
  70
    32
  0
VERTEX
  8
0
  5
AD65
 10
54.0928
 20
1.02305
 30
0.000000
  70
    32
  0
VERTEX
  8
0
  5
AD66
 10
54.1847
 20
0.973547
 30
0.000000
  70
    32
  0
VERTEX
  8
0
  5
AD67
 10
54.2780
 20
0.925109
 30
0.000000
  70
    32
  0
VERTEX
  8
0
  5
AD68
 10
54.3729
 20
0.877748
 30
0.000000
  70
    32
  0
VERTEX
  8
0
  5
AD69
 10
54.4691
 20
0.831482
 30
0.000000
  70
    32
  0
VERTEX
  8
0
  5
AD6A
 10
54.5668
 20
0.786326
 30
0.000000
  70
    32
  0
VERTEX
  8
0
  5
AD6B
 10
54.6658
 20
0.742296
 30
0.000000
  70
    32
  0
VERTEX
  8
0
  5
AD6C
 10
54.7661
 20
0.699408
 30
0.000000
  70
    32
  0
VERTEX
  8
0
  5
AD6D
 10
54.8677
 20
0.657677
 30
0.000000
  70
    32
  0
VERTEX
  8
0
  5
AD6E
 10
54.9706
 20
0.617117
 30
0.000000
  70
    32
  0
VERTEX
  8
0
  5
AD6F
 10
55.0748
 20
0.577743
 30
0.000000
  70
    32
  0
VERTEX
  8
0
  5
AD70
 10
55.1801
 20
0.539568
 30
0.000000
  70
    32
  0
VERTEX
  8
0
  5
AD71
 10
55.2865
 20
0.502606
 30
0.000000
  70
    32
  0
VERTEX
  8
0
  5
AD72
 10
55.3941
 20
0.466870
 30
0.000000
  70
    32
  0
VERTEX
  8
0
  5
AD73
 10
55.5027
 20
0.432372
 30
0.000000
  70
    32
  0
VERTEX
  8
0
  5
AD74
 10
55.6124
 20
0.399125
 30
0.000000
  70
    32
  0
VERTEX
  8
0
  5
AD75
 10
55.7231
 20
0.367139
 30
0.000000
  70
    32
  0
VERTEX
  8
0
  5
AD76
 10
55.8347
 20
0.336427
 30
0.000000
  70
    32
  0
VERTEX
  8
0
  5
AD77
 10
55.9473
 20
0.306999
 30
0.000000
  70
    32
  0
VERTEX
  8
0
  5
AD78
 10
56.0608
 20
0.278865
 30
0.000000
  70
    32
  0
VERTEX
  8
0
  5
AD79
 10
56.1750
 20
0.252035
 30
0.000000
  70
    32
  0
VERTEX
  8
0
  5
AD7A
 10
56.2901
 20
0.226519
 30
0.000000
  70
    32
  0
VERTEX
  8
0
  5
AD7B
 10
56.4060
 20
0.202325
 30
0.000000
  70
    32
  0
VERTEX
  8
0
  5
AD7C
 10
56.5225
 20
0.179462
 30
0.000000
  70
    32
  0
VERTEX
  8
0
  5
AD7D
 10
56.6398
 20
0.157939
 30
0.000000
  70
    32
  0
VERTEX
  8
0
  5
AD7E
 10
56.7577
 20
0.137762
 30
0.000000
  70
    32
  0
VERTEX
  8
0
  5
AD7F
 10
56.8761
 20
0.118938
 30
0.000000
  70
    32
  0
VERTEX
  8
0
  5
AD80
 10
56.9952
 20
0.101475
 30
0.000000
  70
    32
  0
VERTEX
  8
0
  5
AD81
 10
57.1147
 20
0.0853779
 30
0.000000
  70
    32
  0
VERTEX
  8
0
  5
AD82
 10
57.2348
 20
0.0706530
 30
0.000000
  70
    32
  0
VERTEX
  8
0
  5
AD83
 10
57.3552
 20
0.0573052
 30
0.000000
  70
    32
  0
VERTEX
  8
0
  5
AD84
 10
57.4761
 20
0.0453393
 30
0.000000
  70
    32
  0
VERTEX
  8
0
  5
AD85
 10
57.5972
 20
0.0347593
 30
0.000000
  70
    32
  0
VERTEX
  8
0
  5
AD86
 10
57.7187
 20
0.0255692
 30
0.000000
  70
    32
  0
VERTEX
  8
0
  5
AD87
 10
57.8405
 20
0.0177719
 30
0.000000
  70
    32
  0
VERTEX
  8
0
  5
AD88
 10
57.9624
 20
0.0113704
 30
0.000000
  70
    32
  0
VERTEX
  8
0
  5
AD89
 10
58.0846
 20
0.00636676
 30
0.000000
  70
    32
  0
VERTEX
  8
0
  5
AD8A
 10
58.2069
 20
0.00276283
 30
0.000000
  70
    32
  0
VERTEX
  8
0
  5
AD8B
 10
58.3292
 20
0.000559843
 30
0.000000
  70
    32
  0
VERTEX
  8
0
  5
AD8C
 10
58.4516
 20
-0.000241420
 30
0.000000
  70
    32
  0
VERTEX
  8
0
  5
AD8D
 10
58.5740
 20
0.000359317
 30
0.000000
  70
    32
  0
VERTEX
  8
0
  5
AD8E
 10
58.6964
 20
0.00236184
 30
0.000000
  70
    32
  0
VERTEX
  8
0
  5
AD8F
 10
58.8187
 20
0.00576546
 30
0.000000
  70
    32
  0
VERTEX
  8
0
  5
AD90
 10
58.9409
 20
0.0105690
 30
0.000000
  70
    32
  0
VERTEX
  8
0
  5
AD91
 10
59.0629
 20
0.0167707
 30
0.000000
  70
    32
  0
VERTEX
  8
0
  5
AD92
 10
59.1847
 20
0.0243685
 30
0.000000
  70
    32
  0
VERTEX
  8
0
  5
AD93
 10
59.3062
 20
0.0333596
 30
0.000000
  70
    32
  0
VERTEX
  8
0
  5
AD94
 10
59.4274
 20
0.0437409
 30
0.000000
  70
    32
  0
VERTEX
  8
0
  5
AD95
 10
59.5483
 20
0.0555089
 30
0.000000
  70
    32
  0
VERTEX
  8
0
  5
AD96
 10
59.6688
 20
0.0686593
 30
0.000000
  70
    32
  0
VERTEX
  8
0
  5
AD97
 10
59.7889
 20
0.0831875
 30
0.000000
  70
    32
  0
VERTEX
  8
0
  5
AD98
 10
59.9086
 20
0.0990886
 30
0.000000
  70
    32
  0
VERTEX
  8
0
  5
AD99
 10
60.0277
 20
0.116357
 30
0.000000
  70
    32
  0
VERTEX
  8
0
  5
AD9A
 10
60.1463
 20
0.134986
 30
0.000000
  70
    32
  0
VERTEX
  8
0
  5
AD9B
 10
60.2642
 20
0.154970
 30
0.000000
  70
    32
  0
VERTEX
  8
0
  5
AD9C
 10
60.3816
 20
0.176302
 30
0.000000
  70
    32
  0
VERTEX
  8
0
  5
AD9D
 10
60.4983
 20
0.198973
 30
0.000000
  70
    32
  0
VERTEX
  8
0
  5
AD9E
 10
60.6142
 20
0.222977
 30
0.000000
  70
    32
  0
VERTEX
  8
0
  5
AD9F
 10
60.7294
 20
0.248305
 30
0.000000
  70
    32
  0
VERTEX
  8
0
  5
ADA0
 10
60.8438
 20
0.274947
 30
0.000000
  70
    32
  0
VERTEX
  8
0
  5
ADA1
 10
60.9574
 20
0.302895
 30
0.000000
  70
    32
  0
VERTEX
  8
0
  5
ADA2
 10
61.0701
 20
0.332139
 30
0.000000
  70
    32
  0
VERTEX
  8
0
  5
ADA3
 10
61.1819
 20
0.362668
 30
0.000000
  70
    32
  0
VERTEX
  8
0
  5
ADA4
 10
61.2927
 20
0.394472
 30
0.000000
  70
    32
  0
VERTEX
  8
0
  5
ADA5
 10
61.4026
 20
0.427540
 30
0.000000
  70
    32
  0
VERTEX
  8
0
  5
ADA6
 10
61.5114
 20
0.461860
 30
0.000000
  70
    32
  0
VERTEX
  8
0
  5
ADA7
 10
61.6191
 20
0.497420
 30
0.000000
  70
    32
  0
VERTEX
  8
0
  5
ADA8
 10
61.7258
 20
0.534207
 30
0.000000
  70
    32
  0
VERTEX
  8
0
  5
ADA9
 10
61.8313
 20
0.572209
 30
0.000000
  70
    32
  0
VERTEX
  8
0
  5
ADAA
 10
61.9356
 20
0.611413
 30
0.000000
  70
    32
  0
VERTEX
  8
0
  5
ADAB
 10
62.0387
 20
0.651804
 30
0.000000
  70
    32
  0
VERTEX
  8
0
  5
ADAC
 10
62.1405
 20
0.693368
 30
0.000000
  70
    32
  0
VERTEX
  8
0
  5
ADAD
 10
62.2411
 20
0.736091
 30
0.000000
  70
    32
  0
VERTEX
  8
0
  5
ADAE
 10
62.3403
 20
0.779959
 30
0.000000
  70
    32
  0
VERTEX
  8
0
  5
ADAF
 10
62.4381
 20
0.824955
 30
0.000000
  70
    32
  0
VERTEX
  8
0
  5
ADB0
 10
62.5346
 20
0.871063
 30
0.000000
  70
    32
  0
VERTEX
  8
0
  5
ADB1
 10
62.6297
 20
0.918268
 30
0.000000
  70
    32
  0
VERTEX
  8
0
  5
ADB2
 10
62.7232
 20
0.966554
 30
0.000000
  70
    32
  0
VERTEX
  8
0
  5
ADB3
 10
62.8153
 20
1.01590
 30
0.000000
  70
    32
  0
VERTEX
  8
0
  5
ADB4
 10
62.9059
 20
1.06630
 30
0.000000
  70
    32
  0
VERTEX
  8
0
  5
ADB5
 10
62.9949
 20
1.11772
 30
0.000000
  70
    32
  0
VERTEX
  8
0
  5
ADB6
 10
63.0823
 20
1.17015
 30
0.000000
  70
    32
  0
VERTEX
  8
0
  5
ADB7
 10
63.1681
 20
1.22358
 30
0.000000
  70
    32
  0
VERTEX
  8
0
  5
ADB8
 10
63.2522
 20
1.27797
 30
0.000000
  70
    32
  0
VERTEX
  8
0
  5
ADB9
 10
63.3347
 20
1.33332
 30
0.000000
  70
    32
  0
VERTEX
  8
0
  5
ADBA
 10
63.4155
 20
1.38961
 30
0.000000
  70
    32
  0
VERTEX
  8
0
  5
ADBB
 10
63.4945
 20
1.44681
 30
0.000000
  70
    32
  0
VERTEX
  8
0
  5
ADBC
 10
63.5718
 20
1.50491
 30
0.000000
  70
    32
  0
VERTEX
  8
0
  5
ADBD
 10
63.6472
 20
1.56388
 30
0.000000
  70
    32
  0
VERTEX
  8
0
  5
ADBE
 10
63.7209
 20
1.62370
 30
0.000000
  70
    32
  0
VERTEX
  8
0
  5
ADBF
 10
63.7927
 20
1.68436
 30
0.000000
  70
    32
  0
VERTEX
  8
0
  5
ADC0
 10
63.8626
 20
1.74583
 30
0.000000
  70
    32
  0
VERTEX
  8
0
  5
ADC1
 10
63.9306
 20
1.80808
 30
0.000000
  70
    32
  0
VERTEX
  8
0
  5
ADC2
 10
63.9968
 20
1.87111
 30
0.000000
  70
    32
  0
VERTEX
  8
0
  5
ADC3
 10
64.0610
 20
1.93488
 30
0.000000
  70
    32
  0
VERTEX
  8
0
  5
ADC4
 10
64.1232
 20
1.99938
 30
0.000000
  70
    32
  0
VERTEX
  8
0
  5
ADC5
 10
64.1834
 20
2.06458
 30
0.000000
  70
    32
  0
VERTEX
  8
0
  5
ADC6
 10
64.2417
 20
2.13045
 30
0.000000
  70
    32
  0
VERTEX
  8
0
  5
ADC7
 10
64.2979
 20
2.19698
 30
0.000000
  70
    32
  0
VERTEX
  8
0
  5
ADC8
 10
64.3520
 20
2.26415
 30
0.000000
  70
    32
  0
VERTEX
  8
0
  5
ADC9
 10
64.4041
 20
2.33192
 30
0.000000
  70
    32
  0
VERTEX
  8
0
  5
ADCA
 10
64.4541
 20
2.40027
 30
0.000000
  70
    32
  0
VERTEX
  8
0
  5
ADCB
 10
64.5020
 20
2.46919
 30
0.000000
  70
    32
  0
VERTEX
  8
0
  5
ADCC
 10
64.5478
 20
2.53864
 30
0.000000
  70
    32
  0
VERTEX
  8
0
  5
ADCD
 10
64.5915
 20
2.60861
 30
0.000000
  70
    32
  0
VERTEX
  8
0
  5
ADCE
 10
64.6330
 20
2.67906
 30
0.000000
  70
    32
  0
VERTEX
  8
0
  5
ADCF
 10
64.6724
 20
2.74997
 30
0.000000
  70
    32
  0
VERTEX
  8
0
  5
ADD0
 10
64.7095
 20
2.82133
 30
0.000000
  70
    32
  0
VERTEX
  8
0
  5
ADD1
 10
64.7445
 20
2.89309
 30
0.000000
  70
    32
  0
VERTEX
  8
0
  5
ADD2
 10
64.7773
 20
2.96525
 30
0.000000
  70
    32
  0
VERTEX
  8
0
  5
ADD3
 10
64.8079
 20
3.03777
 30
0.000000
  70
    32
  0
VERTEX
  8
0
  5
ADD4
 10
64.8362
 20
3.11062
 30
0.000000
  70
    32
  0
VERTEX
  8
0
  5
ADD5
 10
64.8623
 20
3.18379
 30
0.000000
  70
    32
  0
VERTEX
  8
0
  5
ADD6
 10
64.8862
 20
3.25724
 30
0.000000
  70
    32
  0
VERTEX
  8
0
  5
ADD7
 10
64.9078
 20
3.33095
 30
0.000000
  70
    32
  0
VERTEX
  8
0
  5
ADD8
 10
64.9272
 20
3.40490
 30
0.000000
  70
    32
  0
VERTEX
  8
0
  5
ADD9
 10
64.9442
 20
3.47905
 30
0.000000
  70
    32
  0
VERTEX
  8
0
  5
ADDA
 10
64.9591
 20
3.55339
 30
0.000000
  70
    32
  0
VERTEX
  8
0
  5
ADDB
 10
64.9716
 20
3.62788
 30
0.000000
  70
    32
  0
VERTEX
  8
0
  5
ADDC
 10
64.9819
 20
3.70251
 30
0.000000
  70
    32
  0
VERTEX
  8
0
  5
ADDD
 10
64.9898
 20
3.77723
 30
0.000000
  70
    32
  0
VERTEX
  8
0
  5
ADDE
 10
64.9955
 20
3.85204
 30
0.000000
  70
    32
  0
VERTEX
  8
0
  5
ADDF
 10
64.9989
 20
3.92690
 30
0.000000
  70
    32
  0
VERTEX
  8
0
  5
ADE0
 10
65.0000
 20
4.00178
 30
0.000000
  70
    32
  0
SEQEND
  8
0
  5
ADE1
  0
ARC
  5
3DB4
  8
0
 10
52.000393199557948
 20
-1.215177136461193
 30
0.0
 40
3.0
 50
56.477585336550057
 51
125.12040505281981
  0
LINE
  5
3DB5
  8
0
 10
24.999997330952741
 20
495.99999944581953
 30
0.0
 11
24.999997330953651
 21
3.9999994458196388
 31
0.0
  0
LINE
  5
3DB6
  8
0
 10
24.999997025662651
 20
4.0020271462241217
 30
0.0
 11
39.999997330953647
 21
4.0012051055095981
 31
0.0
  0
LINE
  5
3DB7
  8
0
 10
21.999997330952741
 20
499.36329802001092
 30
0.0
 11
21.99999733095456
 21
0.63670087162825
 31
0.0
  0
LINE
  5
3DB8
  8
0
 10
24.999997330952741
 20
495.99999944581953
 30
0.0
 11
39.999997330953647
 21
495.99999944581953
 31
0.0
  0
LINE
  5
3DB9
  8
0
 10
-0.0000026690472623
 20
495.99999944581953
 30
0.0
 11
-0.0000026690472623
 21
3.9999994458196388
 31
0.0
  0
LINE
  5
3DBA
  8
0
 10
11.92215687309681
 20
498.21595195995712
 30
0.0
 11
12.00034618924974
 21
1.7850672589114529
 31
0.0
  0
LINE
  5
3DBB
  8
0
 10
5.0502240882992728
 20
499.95301263368373
 30
0.0
 11
4.9999973309527368
 21
0.0523453013017843
 31
0.0
  0
POLYLINE
  5
3DBC
  8
0
 10
10.274503447843935
 20
498.76109697482275
 30
0.0
 66
     1
 70
     8
  0
VERTEX
  8
0
  5
ADE2
 10
10.2745
 20
498.761
 30
0.000000
  70
    32
  0
VERTEX
  8
0
  5
ADE3
 10
10.1973
 20
498.814
 30
0.000000
  70
    32
  0
VERTEX
  8
0
  5
ADE4
 10
10.1186
 20
498.867
 30
0.000000
  70
    32
  0
VERTEX
  8
0
  5
ADE5
 10
10.0384
 20
498.918
 30
0.000000
  70
    32
  0
VERTEX
  8
0
  5
ADE6
 10
9.95685
 20
498.968
 30
0.000000
  70
    32
  0
VERTEX
  8
0
  5
ADE7
 10
9.87392
 20
499.018
 30
0.000000
  70
    32
  0
VERTEX
  8
0
  5
ADE8
 10
9.78963
 20
499.066
 30
0.000000
  70
    32
  0
VERTEX
  8
0
  5
ADE9
 10
9.70402
 20
499.113
 30
0.000000
  70
    32
  0
VERTEX
  8
0
  5
ADEA
 10
9.61712
 20
499.159
 30
0.000000
  70
    32
  0
VERTEX
  8
0
  5
ADEB
 10
9.52895
 20
499.205
 30
0.000000
  70
    32
  0
VERTEX
  8
0
  5
ADEC
 10
9.43955
 20
499.248
 30
0.000000
  70
    32
  0
VERTEX
  8
0
  5
ADED
 10
9.34895
 20
499.291
 30
0.000000
  70
    32
  0
VERTEX
  8
0
  5
ADEE
 10
9.25717
 20
499.333
 30
0.000000
  70
    32
  0
VERTEX
  8
0
  5
ADEF
 10
9.16426
 20
499.374
 30
0.000000
  70
    32
  0
VERTEX
  8
0
  5
ADF0
 10
9.07024
 20
499.413
 30
0.000000
  70
    32
  0
VERTEX
  8
0
  5
ADF1
 10
8.97514
 20
499.451
 30
0.000000
  70
    32
  0
VERTEX
  8
0
  5
ADF2
 10
8.87901
 20
499.488
 30
0.000000
  70
    32
  0
VERTEX
  8
0
  5
ADF3
 10
8.78186
 20
499.524
 30
0.000000
  70
    32
  0
VERTEX
  8
0
  5
ADF4
 10
8.68374
 20
499.558
 30
0.000000
  70
    32
  0
VERTEX
  8
0
  5
ADF5
 10
8.58468
 20
499.592
 30
0.000000
  70
    32
  0
VERTEX
  8
0
  5
ADF6
 10
8.48471
 20
499.624
 30
0.000000
  70
    32
  0
VERTEX
  8
0
  5
ADF7
 10
8.38387
 20
499.655
 30
0.000000
  70
    32
  0
VERTEX
  8
0
  5
ADF8
 10
8.28220
 20
499.684
 30
0.000000
  70
    32
  0
VERTEX
  8
0
  5
ADF9
 10
8.17972
 20
499.713
 30
0.000000
  70
    32
  0
VERTEX
  8
0
  5
ADFA
 10
8.07647
 20
499.740
 30
0.000000
  70
    32
  0
VERTEX
  8
0
  5
ADFB
 10
7.97249
 20
499.765
 30
0.000000
  70
    32
  0
VERTEX
  8
0
  5
ADFC
 10
7.86782
 20
499.790
 30
0.000000
  70
    32
  0
VERTEX
  8
0
  5
ADFD
 10
7.76249
 20
499.813
 30
0.000000
  70
    32
  0
VERTEX
  8
0
  5
ADFE
 10
7.65653
 20
499.835
 30
0.000000
  70
    32
  0
VERTEX
  8
0
  5
ADFF
 10
7.54999
 20
499.855
 30
0.000000
  70
    32
  0
VERTEX
  8
0
  5
AE00
 10
7.44291
 20
499.874
 30
0.000000
  70
    32
  0
VERTEX
  8
0
  5
AE01
 10
7.33530
 20
499.892
 30
0.000000
  70
    32
  0
VERTEX
  8
0
  5
AE02
 10
7.22723
 20
499.909
 30
0.000000
  70
    32
  0
VERTEX
  8
0
  5
AE03
 10
7.11871
 20
499.924
 30
0.000000
  70
    32
  0
VERTEX
  8
0
  5
AE04
 10
7.00980
 20
499.938
 30
0.000000
  70
    32
  0
VERTEX
  8
0
  5
AE05
 10
6.90052
 20
499.950
 30
0.000000
  70
    32
  0
VERTEX
  8
0
  5
AE06
 10
6.79092
 20
499.961
 30
0.000000
  70
    32
  0
VERTEX
  8
0
  5
AE07
 10
6.68104
 20
499.971
 30
0.000000
  70
    32
  0
VERTEX
  8
0
  5
AE08
 10
6.57090
 20
499.979
 30
0.000000
  70
    32
  0
VERTEX
  8
0
  5
AE09
 10
6.46055
 20
499.986
 30
0.000000
  70
    32
  0
VERTEX
  8
0
  5
AE0A
 10
6.35003
 20
499.991
 30
0.000000
  70
    32
  0
VERTEX
  8
0
  5
AE0B
 10
6.23938
 20
499.996
 30
0.000000
  70
    32
  0
VERTEX
  8
0
  5
AE0C
 10
6.12863
 20
499.998
 30
0.000000
  70
    32
  0
VERTEX
  8
0
  5
AE0D
 10
6.01782
 20
500.000
 30
0.000000
  70
    32
  0
VERTEX
  8
0
  5
AE0E
 10
5.90699
 20
500.000
 30
0.000000
  70
    32
  0
VERTEX
  8
0
  5
AE0F
 10
5.79618
 20
499.998
 30
0.000000
  70
    32
  0
VERTEX
  8
0
  5
AE10
 10
5.68543
 20
499.996
 30
0.000000
  70
    32
  0
VERTEX
  8
0
  5
AE11
 10
5.57477
 20
499.992
 30
0.000000
  70
    32
  0
VERTEX
  8
0
  5
AE12
 10
5.46425
 20
499.986
 30
0.000000
  70
    32
  0
VERTEX
  8
0
  5
AE13
 10
5.35390
 20
499.979
 30
0.000000
  70
    32
  0
VERTEX
  8
0
  5
AE14
 10
5.24376
 20
499.971
 30
0.000000
  70
    32
  0
VERTEX
  8
0
  5
AE15
 10
5.13387
 20
499.961
 30
0.000000
  70
    32
  0
VERTEX
  8
0
  5
AE16
 10
5.02426
 20
499.950
 30
0.000000
  70
    32
  0
VERTEX
  8
0
  5
AE17
 10
4.91498
 20
499.938
 30
0.000000
  70
    32
  0
VERTEX
  8
0
  5
AE18
 10
4.80605
 20
499.924
 30
0.000000
  70
    32
  0
VERTEX
  8
0
  5
AE19
 10
4.69753
 20
499.909
 30
0.000000
  70
    32
  0
VERTEX
  8
0
  5
AE1A
 10
4.58945
 20
499.893
 30
0.000000
  70
    32
  0
VERTEX
  8
0
  5
AE1B
 10
4.48183
 20
499.875
 30
0.000000
  70
    32
  0
VERTEX
  8
0
  5
AE1C
 10
4.37473
 20
499.856
 30
0.000000
  70
    32
  0
VERTEX
  8
0
  5
AE1D
 10
4.26818
 20
499.835
 30
0.000000
  70
    32
  0
VERTEX
  8
0
  5
AE1E
 10
4.16222
 20
499.813
 30
0.000000
  70
    32
  0
VERTEX
  8
0
  5
AE1F
 10
4.05687
 20
499.790
 30
0.000000
  70
    32
  0
VERTEX
  8
0
  5
AE20
 10
3.95218
 20
499.766
 30
0.000000
  70
    32
  0
VERTEX
  8
0
  5
AE21
 10
3.84819
 20
499.740
 30
0.000000
  70
    32
  0
VERTEX
  8
0
  5
AE22
 10
3.74493
 20
499.713
 30
0.000000
  70
    32
  0
VERTEX
  8
0
  5
AE23
 10
3.64243
 20
499.685
 30
0.000000
  70
    32
  0
VERTEX
  8
0
  5
AE24
 10
3.54074
 20
499.655
 30
0.000000
  70
    32
  0
VERTEX
  8
0
  5
AE25
 10
3.43988
 20
499.625
 30
0.000000
  70
    32
  0
VERTEX
  8
0
  5
AE26
 10
3.33990
 20
499.593
 30
0.000000
  70
    32
  0
VERTEX
  8
0
  5
AE27
 10
3.24082
 20
499.559
 30
0.000000
  70
    32
  0
VERTEX
  8
0
  5
AE28
 10
3.14268
 20
499.525
 30
0.000000
  70
    32
  0
VERTEX
  8
0
  5
AE29
 10
3.04551
 20
499.489
 30
0.000000
  70
    32
  0
VERTEX
  8
0
  5
AE2A
 10
2.94935
 20
499.452
 30
0.000000
  70
    32
  0
VERTEX
  8
0
  5
AE2B
 10
2.85424
 20
499.414
 30
0.000000
  70
    32
  0
VERTEX
  8
0
  5
AE2C
 10
2.76019
 20
499.374
 30
0.000000
  70
    32
  0
VERTEX
  8
0
  5
AE2D
 10
2.66726
 20
499.334
 30
0.000000
  70
    32
  0
VERTEX
  8
0
  5
AE2E
 10
2.57546
 20
499.292
 30
0.000000
  70
    32
  0
VERTEX
  8
0
  5
AE2F
 10
2.48483
 20
499.249
 30
0.000000
  70
    32
  0
VERTEX
  8
0
  5
AE30
 10
2.39540
 20
499.205
 30
0.000000
  70
    32
  0
VERTEX
  8
0
  5
AE31
 10
2.30721
 20
499.160
 30
0.000000
  70
    32
  0
VERTEX
  8
0
  5
AE32
 10
2.22028
 20
499.114
 30
0.000000
  70
    32
  0
VERTEX
  8
0
  5
AE33
 10
2.13464
 20
499.067
 30
0.000000
  70
    32
  0
VERTEX
  8
0
  5
AE34
 10
2.05033
 20
499.019
 30
0.000000
  70
    32
  0
VERTEX
  8
0
  5
AE35
 10
1.96736
 20
498.970
 30
0.000000
  70
    32
  0
VERTEX
  8
0
  5
AE36
 10
1.88578
 20
498.919
 30
0.000000
  70
    32
  0
VERTEX
  8
0
  5
AE37
 10
1.80561
 20
498.868
 30
0.000000
  70
    32
  0
VERTEX
  8
0
  5
AE38
 10
1.72687
 20
498.816
 30
0.000000
  70
    32
  0
VERTEX
  8
0
  5
AE39
 10
1.64959
 20
498.762
 30
0.000000
  70
    32
  0
VERTEX
  8
0
  5
AE3A
 10
1.57381
 20
498.708
 30
0.000000
  70
    32
  0
VERTEX
  8
0
  5
AE3B
 10
1.49954
 20
498.653
 30
0.000000
  70
    32
  0
VERTEX
  8
0
  5
AE3C
 10
1.42682
 20
498.597
 30
0.000000
  70
    32
  0
VERTEX
  8
0
  5
AE3D
 10
1.35566
 20
498.540
 30
0.000000
  70
    32
  0
VERTEX
  8
0
  5
AE3E
 10
1.28609
 20
498.482
 30
0.000000
  70
    32
  0
VERTEX
  8
0
  5
AE3F
 10
1.21814
 20
498.423
 30
0.000000
  70
    32
  0
VERTEX
  8
0
  5
AE40
 10
1.15183
 20
498.363
 30
0.000000
  70
    32
  0
VERTEX
  8
0
  5
AE41
 10
1.08718
 20
498.303
 30
0.000000
  70
    32
  0
VERTEX
  8
0
  5
AE42
 10
1.02422
 20
498.242
 30
0.000000
  70
    32
  0
VERTEX
  8
0
  5
AE43
 10
0.962960
 20
498.180
 30
0.000000
  70
    32
  0
VERTEX
  8
0
  5
AE44
 10
0.903430
 20
498.117
 30
0.000000
  70
    32
  0
VERTEX
  8
0
  5
AE45
 10
0.845648
 20
498.054
 30
0.000000
  70
    32
  0
VERTEX
  8
0
  5
AE46
 10
0.789634
 20
497.989
 30
0.000000
  70
    32
  0
VERTEX
  8
0
  5
AE47
 10
0.735408
 20
497.925
 30
0.000000
  70
    32
  0
VERTEX
  8
0
  5
AE48
 10
0.682988
 20
497.859
 30
0.000000
  70
    32
  0
VERTEX
  8
0
  5
AE49
 10
0.632393
 20
497.793
 30
0.000000
  70
    32
  0
VERTEX
  8
0
  5
AE4A
 10
0.583639
 20
497.726
 30
0.000000
  70
    32
  0
VERTEX
  8
0
  5
AE4B
 10
0.536744
 20
497.659
 30
0.000000
  70
    32
  0
VERTEX
  8
0
  5
AE4C
 10
0.491724
 20
497.591
 30
0.000000
  70
    32
  0
VERTEX
  8
0
  5
AE4D
 10
0.448594
 20
497.522
 30
0.000000
  70
    32
  0
VERTEX
  8
0
  5
AE4E
 10
0.407370
 20
497.453
 30
0.000000
  70
    32
  0
VERTEX
  8
0
  5
AE4F
 10
0.368065
 20
497.384
 30
0.000000
  70
    32
  0
VERTEX
  8
0
  5
AE50
 10
0.330694
 20
497.314
 30
0.000000
  70
    32
  0
VERTEX
  8
0
  5
AE51
 10
0.295268
 20
497.243
 30
0.000000
  70
    32
  0
VERTEX
  8
0
  5
AE52
 10
0.261801
 20
497.172
 30
0.000000
  70
    32
  0
VERTEX
  8
0
  5
AE53
 10
0.230304
 20
497.101
 30
0.000000
  70
    32
  0
VERTEX
  8
0
  5
AE54
 10
0.200788
 20
497.029
 30
0.000000
  70
    32
  0
VERTEX
  8
0
  5
AE55
 10
0.173263
 20
496.957
 30
0.000000
  70
    32
  0
VERTEX
  8
0
  5
AE56
 10
0.147738
 20
496.885
 30
0.000000
  70
    32
  0
VERTEX
  8
0
  5
AE57
 10
0.124223
 20
496.812
 30
0.000000
  70
    32
  0
VERTEX
  8
0
  5
AE58
 10
0.102726
 20
496.739
 30
0.000000
  70
    32
  0
VERTEX
  8
0
  5
AE59
 10
0.0832528
 20
496.666
 30
0.000000
  70
    32
  0
VERTEX
  8
0
  5
AE5A
 10
0.0658116
 20
496.593
 30
0.000000
  70
    32
  0
VERTEX
  8
0
  5
AE5B
 10
0.0504082
 20
496.519
 30
0.000000
  70
    32
  0
VERTEX
  8
0
  5
AE5C
 10
0.0370478
 20
496.445
 30
0.000000
  70
    32
  0
VERTEX
  8
0
  5
AE5D
 10
0.0257349
 20
496.371
 30
0.000000
  70
    32
  0
VERTEX
  8
0
  5
AE5E
 10
0.0164737
 20
496.297
 30
0.000000
  70
    32
  0
VERTEX
  8
0
  5
AE5F
 10
0.00926714
 20
496.223
 30
0.000000
  70
    32
  0
VERTEX
  8
0
  5
AE60
 10
0.00411784
 20
496.149
 30
0.000000
  70
    32
  0
VERTEX
  8
0
  5
AE61
 10
0.00102755
 20
496.074
 30
0.000000
  70
    32
  0
VERTEX
  8
0
  5
AE62
 10
-2.66905e-006
 20
496.000
 30
0.000000
  70
    32
  0
SEQEND
  8
0
  5
AE63
  0
POLYLINE
  5
3DBD
  8
0
 10
13.657182712499907
 20
498.71392212684481
 30
0.0
 66
     1
 70
     8
  0
VERTEX
  8
0
  5
AE64
 10
13.6572
 20
498.714
 30
0.000000
  70
    32
  0
VERTEX
  8
0
  5
AE65
 10
13.7411
 20
498.768
 30
0.000000
  70
    32
  0
VERTEX
  8
0
  5
AE66
 10
13.8266
 20
498.822
 30
0.000000
  70
    32
  0
VERTEX
  8
0
  5
AE67
 10
13.9138
 20
498.875
 30
0.000000
  70
    32
  0
VERTEX
  8
0
  5
AE68
 10
14.0025
 20
498.926
 30
0.000000
  70
    32
  0
VERTEX
  8
0
  5
AE69
 10
14.0928
 20
498.977
 30
0.000000
  70
    32
  0
VERTEX
  8
0
  5
AE6A
 10
14.1847
 20
499.026
 30
0.000000
  70
    32
  0
VERTEX
  8
0
  5
AE6B
 10
14.2780
 20
499.075
 30
0.000000
  70
    32
  0
VERTEX
  8
0
  5
AE6C
 10
14.3729
 20
499.122
 30
0.000000
  70
    32
  0
VERTEX
  8
0
  5
AE6D
 10
14.4691
 20
499.168
 30
0.000000
  70
    32
  0
VERTEX
  8
0
  5
AE6E
 10
14.5668
 20
499.213
 30
0.000000
  70
    32
  0
VERTEX
  8
0
  5
AE6F
 10
14.6658
 20
499.257
 30
0.000000
  70
    32
  0
VERTEX
  8
0
  5
AE70
 10
14.7661
 20
499.300
 30
0.000000
  70
    32
  0
VERTEX
  8
0
  5
AE71
 10
14.8677
 20
499.342
 30
0.000000
  70
    32
  0
VERTEX
  8
0
  5
AE72
 10
14.9706
 20
499.383
 30
0.000000
  70
    32
  0
VERTEX
  8
0
  5
AE73
 10
15.0748
 20
499.422
 30
0.000000
  70
    32
  0
VERTEX
  8
0
  5
AE74
 10
15.1801
 20
499.460
 30
0.000000
  70
    32
  0
VERTEX
  8
0
  5
AE75
 10
15.2865
 20
499.497
 30
0.000000
  70
    32
  0
VERTEX
  8
0
  5
AE76
 10
15.3941
 20
499.533
 30
0.000000
  70
    32
  0
VERTEX
  8
0
  5
AE77
 10
15.5027
 20
499.567
 30
0.000000
  70
    32
  0
VERTEX
  8
0
  5
AE78
 10
15.6124
 20
499.601
 30
0.000000
  70
    32
  0
VERTEX
  8
0
  5
AE79
 10
15.7231
 20
499.633
 30
0.000000
  70
    32
  0
VERTEX
  8
0
  5
AE7A
 10
15.8347
 20
499.663
 30
0.000000
  70
    32
  0
VERTEX
  8
0
  5
AE7B
 10
15.9473
 20
499.693
 30
0.000000
  70
    32
  0
VERTEX
  8
0
  5
AE7C
 10
16.0608
 20
499.721
 30
0.000000
  70
    32
  0
VERTEX
  8
0
  5
AE7D
 10
16.1750
 20
499.748
 30
0.000000
  70
    32
  0
VERTEX
  8
0
  5
AE7E
 10
16.2901
 20
499.773
 30
0.000000
  70
    32
  0
VERTEX
  8
0
  5
AE7F
 10
16.4060
 20
499.797
 30
0.000000
  70
    32
  0
VERTEX
  8
0
  5
AE80
 10
16.5225
 20
499.820
 30
0.000000
  70
    32
  0
VERTEX
  8
0
  5
AE81
 10
16.6398
 20
499.842
 30
0.000000
  70
    32
  0
VERTEX
  8
0
  5
AE82
 10
16.7577
 20
499.862
 30
0.000000
  70
    32
  0
VERTEX
  8
0
  5
AE83
 10
16.8761
 20
499.881
 30
0.000000
  70
    32
  0
VERTEX
  8
0
  5
AE84
 10
16.9952
 20
499.898
 30
0.000000
  70
    32
  0
VERTEX
  8
0
  5
AE85
 10
17.1147
 20
499.914
 30
0.000000
  70
    32
  0
VERTEX
  8
0
  5
AE86
 10
17.2348
 20
499.929
 30
0.000000
  70
    32
  0
VERTEX
  8
0
  5
AE87
 10
17.3552
 20
499.942
 30
0.000000
  70
    32
  0
VERTEX
  8
0
  5
AE88
 10
17.4761
 20
499.954
 30
0.000000
  70
    32
  0
VERTEX
  8
0
  5
AE89
 10
17.5972
 20
499.965
 30
0.000000
  70
    32
  0
VERTEX
  8
0
  5
AE8A
 10
17.7187
 20
499.974
 30
0.000000
  70
    32
  0
VERTEX
  8
0
  5
AE8B
 10
17.8405
 20
499.982
 30
0.000000
  70
    32
  0
VERTEX
  8
0
  5
AE8C
 10
17.9624
 20
499.988
 30
0.000000
  70
    32
  0
VERTEX
  8
0
  5
AE8D
 10
18.0846
 20
499.993
 30
0.000000
  70
    32
  0
VERTEX
  8
0
  5
AE8E
 10
18.2069
 20
499.997
 30
0.000000
  70
    32
  0
VERTEX
  8
0
  5
AE8F
 10
18.3292
 20
499.999
 30
0.000000
  70
    32
  0
VERTEX
  8
0
  5
AE90
 10
18.4516
 20
500.000
 30
0.000000
  70
    32
  0
VERTEX
  8
0
  5
AE91
 10
18.5740
 20
499.999
 30
0.000000
  70
    32
  0
VERTEX
  8
0
  5
AE92
 10
18.6964
 20
499.997
 30
0.000000
  70
    32
  0
VERTEX
  8
0
  5
AE93
 10
18.8187
 20
499.994
 30
0.000000
  70
    32
  0
VERTEX
  8
0
  5
AE94
 10
18.9409
 20
499.989
 30
0.000000
  70
    32
  0
VERTEX
  8
0
  5
AE95
 10
19.0629
 20
499.983
 30
0.000000
  70
    32
  0
VERTEX
  8
0
  5
AE96
 10
19.1847
 20
499.975
 30
0.000000
  70
    32
  0
VERTEX
  8
0
  5
AE97
 10
19.3062
 20
499.966
 30
0.000000
  70
    32
  0
VERTEX
  8
0
  5
AE98
 10
19.4274
 20
499.956
 30
0.000000
  70
    32
  0
VERTEX
  8
0
  5
AE99
 10
19.5483
 20
499.944
 30
0.000000
  70
    32
  0
VERTEX
  8
0
  5
AE9A
 10
19.6688
 20
499.931
 30
0.000000
  70
    32
  0
VERTEX
  8
0
  5
AE9B
 10
19.7889
 20
499.917
 30
0.000000
  70
    32
  0
VERTEX
  8
0
  5
AE9C
 10
19.9086
 20
499.901
 30
0.000000
  70
    32
  0
VERTEX
  8
0
  5
AE9D
 10
20.0277
 20
499.883
 30
0.000000
  70
    32
  0
VERTEX
  8
0
  5
AE9E
 10
20.1463
 20
499.865
 30
0.000000
  70
    32
  0
VERTEX
  8
0
  5
AE9F
 10
20.2642
 20
499.845
 30
0.000000
  70
    32
  0
VERTEX
  8
0
  5
AEA0
 10
20.3816
 20
499.823
 30
0.000000
  70
    32
  0
VERTEX
  8
0
  5
AEA1
 10
20.4983
 20
499.801
 30
0.000000
  70
    32
  0
VERTEX
  8
0
  5
AEA2
 10
20.6142
 20
499.777
 30
0.000000
  70
    32
  0
VERTEX
  8
0
  5
AEA3
 10
20.7294
 20
499.751
 30
0.000000
  70
    32
  0
VERTEX
  8
0
  5
AEA4
 10
20.8438
 20
499.725
 30
0.000000
  70
    32
  0
VERTEX
  8
0
  5
AEA5
 10
20.9574
 20
499.697
 30
0.000000
  70
    32
  0
VERTEX
  8
0
  5
AEA6
 10
21.0701
 20
499.668
 30
0.000000
  70
    32
  0
VERTEX
  8
0
  5
AEA7
 10
21.1819
 20
499.637
 30
0.000000
  70
    32
  0
VERTEX
  8
0
  5
AEA8
 10
21.2927
 20
499.605
 30
0.000000
  70
    32
  0
VERTEX
  8
0
  5
AEA9
 10
21.4026
 20
499.572
 30
0.000000
  70
    32
  0
VERTEX
  8
0
  5
AEAA
 10
21.5114
 20
499.538
 30
0.000000
  70
    32
  0
VERTEX
  8
0
  5
AEAB
 10
21.6191
 20
499.502
 30
0.000000
  70
    32
  0
VERTEX
  8
0
  5
AEAC
 10
21.7258
 20
499.466
 30
0.000000
  70
    32
  0
VERTEX
  8
0
  5
AEAD
 10
21.8313
 20
499.428
 30
0.000000
  70
    32
  0
VERTEX
  8
0
  5
AEAE
 10
21.9356
 20
499.388
 30
0.000000
  70
    32
  0
VERTEX
  8
0
  5
AEAF
 10
22.0387
 20
499.348
 30
0.000000
  70
    32
  0
VERTEX
  8
0
  5
AEB0
 10
22.1405
 20
499.306
 30
0.000000
  70
    32
  0
VERTEX
  8
0
  5
AEB1
 10
22.2411
 20
499.264
 30
0.000000
  70
    32
  0
VERTEX
  8
0
  5
AEB2
 10
22.3403
 20
499.220
 30
0.000000
  70
    32
  0
VERTEX
  8
0
  5
AEB3
 10
22.4381
 20
499.175
 30
0.000000
  70
    32
  0
VERTEX
  8
0
  5
AEB4
 10
22.5346
 20
499.129
 30
0.000000
  70
    32
  0
VERTEX
  8
0
  5
AEB5
 10
22.6297
 20
499.081
 30
0.000000
  70
    32
  0
VERTEX
  8
0
  5
AEB6
 10
22.7232
 20
499.033
 30
0.000000
  70
    32
  0
VERTEX
  8
0
  5
AEB7
 10
22.8153
 20
498.984
 30
0.000000
  70
    32
  0
VERTEX
  8
0
  5
AEB8
 10
22.9059
 20
498.933
 30
0.000000
  70
    32
  0
VERTEX
  8
0
  5
AEB9
 10
22.9949
 20
498.882
 30
0.000000
  70
    32
  0
VERTEX
  8
0
  5
AEBA
 10
23.0823
 20
498.830
 30
0.000000
  70
    32
  0
VERTEX
  8
0
  5
AEBB
 10
23.1681
 20
498.776
 30
0.000000
  70
    32
  0
VERTEX
  8
0
  5
AEBC
 10
23.2522
 20
498.722
 30
0.000000
  70
    32
  0
VERTEX
  8
0
  5
AEBD
 10
23.3347
 20
498.666
 30
0.000000
  70
    32
  0
VERTEX
  8
0
  5
AEBE
 10
23.4155
 20
498.610
 30
0.000000
  70
    32
  0
VERTEX
  8
0
  5
AEBF
 10
23.4945
 20
498.553
 30
0.000000
  70
    32
  0
VERTEX
  8
0
  5
AEC0
 10
23.5718
 20
498.495
 30
0.000000
  70
    32
  0
VERTEX
  8
0
  5
AEC1
 10
23.6472
 20
498.436
 30
0.000000
  70
    32
  0
VERTEX
  8
0
  5
AEC2
 10
23.7209
 20
498.376
 30
0.000000
  70
    32
  0
VERTEX
  8
0
  5
AEC3
 10
23.7927
 20
498.315
 30
0.000000
  70
    32
  0
VERTEX
  8
0
  5
AEC4
 10
23.8626
 20
498.254
 30
0.000000
  70
    32
  0
VERTEX
  8
0
  5
AEC5
 10
23.9306
 20
498.192
 30
0.000000
  70
    32
  0
VERTEX
  8
0
  5
AEC6
 10
23.9968
 20
498.129
 30
0.000000
  70
    32
  0
VERTEX
  8
0
  5
AEC7
 10
24.0610
 20
498.065
 30
0.000000
  70
    32
  0
VERTEX
  8
0
  5
AEC8
 10
24.1232
 20
498.000
 30
0.000000
  70
    32
  0
VERTEX
  8
0
  5
AEC9
 10
24.1834
 20
497.935
 30
0.000000
  70
    32
  0
VERTEX
  8
0
  5
AECA
 10
24.2417
 20
497.869
 30
0.000000
  70
    32
  0
VERTEX
  8
0
  5
AECB
 10
24.2979
 20
497.803
 30
0.000000
  70
    32
  0
VERTEX
  8
0
  5
AECC
 10
24.3520
 20
497.736
 30
0.000000
  70
    32
  0
VERTEX
  8
0
  5
AECD
 10
24.4041
 20
497.668
 30
0.000000
  70
    32
  0
VERTEX
  8
0
  5
AECE
 10
24.4541
 20
497.599
 30
0.000000
  70
    32
  0
VERTEX
  8
0
  5
AECF
 10
24.5020
 20
497.531
 30
0.000000
  70
    32
  0
VERTEX
  8
0
  5
AED0
 10
24.5478
 20
497.461
 30
0.000000
  70
    32
  0
VERTEX
  8
0
  5
AED1
 10
24.5915
 20
497.391
 30
0.000000
  70
    32
  0
VERTEX
  8
0
  5
AED2
 10
24.6330
 20
497.321
 30
0.000000
  70
    32
  0
VERTEX
  8
0
  5
AED3
 10
24.6724
 20
497.250
 30
0.000000
  70
    32
  0
VERTEX
  8
0
  5
AED4
 10
24.7095
 20
497.178
 30
0.000000
  70
    32
  0
VERTEX
  8
0
  5
AED5
 10
24.7445
 20
497.107
 30
0.000000
  70
    32
  0
VERTEX
  8
0
  5
AED6
 10
24.7773
 20
497.035
 30
0.000000
  70
    32
  0
VERTEX
  8
0
  5
AED7
 10
24.8079
 20
496.962
 30
0.000000
  70
    32
  0
VERTEX
  8
0
  5
AED8
 10
24.8362
 20
496.889
 30
0.000000
  70
    32
  0
VERTEX
  8
0
  5
AED9
 10
24.8623
 20
496.816
 30
0.000000
  70
    32
  0
VERTEX
  8
0
  5
AEDA
 10
24.8862
 20
496.743
 30
0.000000
  70
    32
  0
VERTEX
  8
0
  5
AEDB
 10
24.9078
 20
496.669
 30
0.000000
  70
    32
  0
VERTEX
  8
0
  5
AEDC
 10
24.9272
 20
496.595
 30
0.000000
  70
    32
  0
VERTEX
  8
0
  5
AEDD
 10
24.9442
 20
496.521
 30
0.000000
  70
    32
  0
VERTEX
  8
0
  5
AEDE
 10
24.9591
 20
496.446
 30
0.000000
  70
    32
  0
VERTEX
  8
0
  5
AEDF
 10
24.9716
 20
496.372
 30
0.000000
  70
    32
  0
VERTEX
  8
0
  5
AEE0
 10
24.9819
 20
496.297
 30
0.000000
  70
    32
  0
VERTEX
  8
0
  5
AEE1
 10
24.9898
 20
496.223
 30
0.000000
  70
    32
  0
VERTEX
  8
0
  5
AEE2
 10
24.9955
 20
496.148
 30
0.000000
  70
    32
  0
VERTEX
  8
0
  5
AEE3
 10
24.9989
 20
496.073
 30
0.000000
  70
    32
  0
VERTEX
  8
0
  5
AEE4
 10
25.0000
 20
495.998
 30
0.000000
  70
    32
  0
SEQEND
  8
0
  5
AEE5
  0
ARC
  5
3DBE
  8
0
 10
12.000393210684249
 20
501.21493163235931
 30
0.0
 40
3.0
 50
234.87959494715139
 51
303.52241466344992
  0
POLYLINE
  5
3DBF
  8
0
 10
10.274503447843935
 20
1.2389019168164386
 30
0.0
 66
     1
 70
     8
  0
VERTEX
  8
0
  5
AEE6
 10
10.2745
 20
1.23890
 30
0.000000
  70
    32
  0
VERTEX
  8
0
  5
AEE7
 10
10.1973
 20
1.18557
 30
0.000000
  70
    32
  0
VERTEX
  8
0
  5
AEE8
 10
10.1186
 20
1.13322
 30
0.000000
  70
    32
  0
VERTEX
  8
0
  5
AEE9
 10
10.0384
 20
1.08186
 30
0.000000
  70
    32
  0
VERTEX
  8
0
  5
AEEA
 10
9.95685
 20
1.03150
 30
0.000000
  70
    32
  0
VERTEX
  8
0
  5
AEEB
 10
9.87392
 20
0.982172
 30
0.000000
  70
    32
  0
VERTEX
  8
0
  5
AEEC
 10
9.78963
 20
0.933886
 30
0.000000
  70
    32
  0
VERTEX
  8
0
  5
AEED
 10
9.70402
 20
0.886660
 30
0.000000
  70
    32
  0
VERTEX
  8
0
  5
AEEE
 10
9.61712
 20
0.840510
 30
0.000000
  70
    32
  0
VERTEX
  8
0
  5
AEEF
 10
9.52895
 20
0.795452
 30
0.000000
  70
    32
  0
VERTEX
  8
0
  5
AEF0
 10
9.43955
 20
0.751501
 30
0.000000
  70
    32
  0
VERTEX
  8
0
  5
AEF1
 10
9.34895
 20
0.708673
 30
0.000000
  70
    32
  0
VERTEX
  8
0
  5
AEF2
 10
9.25717
 20
0.666983
 30
0.000000
  70
    32
  0
VERTEX
  8
0
  5
AEF3
 10
9.16426
 20
0.626445
 30
0.000000
  70
    32
  0
VERTEX
  8
0
  5
AEF4
 10
9.07024
 20
0.587073
 30
0.000000
  70
    32
  0
VERTEX
  8
0
  5
AEF5
 10
8.97514
 20
0.548881
 30
0.000000
  70
    32
  0
VERTEX
  8
0
  5
AEF6
 10
8.87901
 20
0.511881
 30
0.000000
  70
    32
  0
VERTEX
  8
0
  5
AEF7
 10
8.78186
 20
0.476087
 30
0.000000
  70
    32
  0
VERTEX
  8
0
  5
AEF8
 10
8.68374
 20
0.441511
 30
0.000000
  70
    32
  0
VERTEX
  8
0
  5
AEF9
 10
8.58468
 20
0.408165
 30
0.000000
  70
    32
  0
VERTEX
  8
0
  5
AEFA
 10
8.48471
 20
0.376061
 30
0.000000
  70
    32
  0
VERTEX
  8
0
  5
AEFB
 10
8.38387
 20
0.345209
 30
0.000000
  70
    32
  0
VERTEX
  8
0
  5
AEFC
 10
8.28220
 20
0.315620
 30
0.000000
  70
    32
  0
VERTEX
  8
0
  5
AEFD
 10
8.17972
 20
0.287305
 30
0.000000
  70
    32
  0
VERTEX
  8
0
  5
AEFE
 10
8.07647
 20
0.260273
 30
0.000000
  70
    32
  0
VERTEX
  8
0
  5
AEFF
 10
7.97249
 20
0.234533
 30
0.000000
  70
    32
  0
VERTEX
  8
0
  5
AF00
 10
7.86782
 20
0.210095
 30
0.000000
  70
    32
  0
VERTEX
  8
0
  5
AF01
 10
7.76249
 20
0.186967
 30
0.000000
  70
    32
  0
VERTEX
  8
0
  5
AF02
 10
7.65653
 20
0.165157
 30
0.000000
  70
    32
  0
VERTEX
  8
0
  5
AF03
 10
7.54999
 20
0.144672
 30
0.000000
  70
    32
  0
VERTEX
  8
0
  5
AF04
 10
7.44291
 20
0.125520
 30
0.000000
  70
    32
  0
VERTEX
  8
0
  5
AF05
 10
7.33530
 20
0.107707
 30
0.000000
  70
    32
  0
VERTEX
  8
0
  5
AF06
 10
7.22723
 20
0.0912399
 30
0.000000
  70
    32
  0
VERTEX
  8
0
  5
AF07
 10
7.11871
 20
0.0761233
 30
0.000000
  70
    32
  0
VERTEX
  8
0
  5
AF08
 10
7.00980
 20
0.0623630
 30
0.000000
  70
    32
  0
VERTEX
  8
0
  5
AF09
 10
6.90052
 20
0.0499636
 30
0.000000
  70
    32
  0
VERTEX
  8
0
  5
AF0A
 10
6.79092
 20
0.0389296
 30
0.000000
  70
    32
  0
VERTEX
  8
0
  5
AF0B
 10
6.68104
 20
0.0292646
 30
0.000000
  70
    32
  0
VERTEX
  8
0
  5
AF0C
 10
6.57090
 20
0.0209720
 30
0.000000
  70
    32
  0
VERTEX
  8
0
  5
AF0D
 10
6.46055
 20
0.0140548
 30
0.000000
  70
    32
  0
VERTEX
  8
0
  5
AF0E
 10
6.35003
 20
0.00851526
 30
0.000000
  70
    32
  0
VERTEX
  8
0
  5
AF0F
 10
6.23938
 20
0.00435532
 30
0.000000
  70
    32
  0
VERTEX
  8
0
  5
AF10
 10
6.12863
 20
0.00157643
 30
0.000000
  70
    32
  0
VERTEX
  8
0
  5
AF11
 10
6.01782
 20
0.000179543
 30
0.000000
  70
    32
  0
VERTEX
  8
0
  5
AF12
 10
5.90699
 20
0.000165143
 30
0.000000
  70
    32
  0
VERTEX
  8
0
  5
AF13
 10
5.79618
 20
0.00153324
 30
0.000000
  70
    32
  0
VERTEX
  8
0
  5
AF14
 10
5.68543
 20
0.00428335
 30
0.000000
  70
    32
  0
VERTEX
  8
0
  5
AF15
 10
5.57477
 20
0.00841453
 30
0.000000
  70
    32
  0
VERTEX
  8
0
  5
AF16
 10
5.46425
 20
0.0139254
 30
0.000000
  70
    32
  0
VERTEX
  8
0
  5
AF17
 10
5.35390
 20
0.0208139
 30
0.000000
  70
    32
  0
VERTEX
  8
0
  5
AF18
 10
5.24376
 20
0.0290778
 30
0.000000
  70
    32
  0
VERTEX
  8
0
  5
AF19
 10
5.13387
 20
0.0387142
 30
0.000000
  70
    32
  0
VERTEX
  8
0
  5
AF1A
 10
5.02426
 20
0.0497198
 30
0.000000
  70
    32
  0
VERTEX
  8
0
  5
AF1B
 10
4.91498
 20
0.0620908
 30
0.000000
  70
    32
  0
VERTEX
  8
0
  5
AF1C
 10
4.80605
 20
0.0758228
 30
0.000000
  70
    32
  0
VERTEX
  8
0
  5
AF1D
 10
4.69753
 20
0.0909112
 30
0.000000
  70
    32
  0
VERTEX
  8
0
  5
AF1E
 10
4.58945
 20
0.107351
 30
0.000000
  70
    32
  0
VERTEX
  8
0
  5
AF1F
 10
4.48183
 20
0.125136
 30
0.000000
  70
    32
  0
VERTEX
  8
0
  5
AF20
 10
4.37473
 20
0.144260
 30
0.000000
  70
    32
  0
VERTEX
  8
0
  5
AF21
 10
4.26818
 20
0.164717
 30
0.000000
  70
    32
  0
VERTEX
  8
0
  5
AF22
 10
4.16222
 20
0.186499
 30
0.000000
  70
    32
  0
VERTEX
  8
0
  5
AF23
 10
4.05687
 20
0.209600
 30
0.000000
  70
    32
  0
VERTEX
  8
0
  5
AF24
 10
3.95218
 20
0.234011
 30
0.000000
  70
    32
  0
VERTEX
  8
0
  5
AF25
 10
3.84819
 20
0.259723
 30
0.000000
  70
    32
  0
VERTEX
  8
0
  5
AF26
 10
3.74493
 20
0.286728
 30
0.000000
  70
    32
  0
VERTEX
  8
0
  5
AF27
 10
3.64243
 20
0.315017
 30
0.000000
  70
    32
  0
VERTEX
  8
0
  5
AF28
 10
3.54074
 20
0.344579
 30
0.000000
  70
    32
  0
VERTEX
  8
0
  5
AF29
 10
3.43988
 20
0.375405
 30
0.000000
  70
    32
  0
VERTEX
  8
0
  5
AF2A
 10
3.33990
 20
0.407484
 30
0.000000
  70
    32
  0
VERTEX
  8
0
  5
AF2B
 10
3.24082
 20
0.440804
 30
0.000000
  70
    32
  0
VERTEX
  8
0
  5
AF2C
 10
3.14268
 20
0.475354
 30
0.000000
  70
    32
  0
VERTEX
  8
0
  5
AF2D
 10
3.04551
 20
0.511123
 30
0.000000
  70
    32
  0
VERTEX
  8
0
  5
AF2E
 10
2.94935
 20
0.548098
 30
0.000000
  70
    32
  0
VERTEX
  8
0
  5
AF2F
 10
2.85424
 20
0.586265
 30
0.000000
  70
    32
  0
VERTEX
  8
0
  5
AF30
 10
2.76019
 20
0.625613
 30
0.000000
  70
    32
  0
VERTEX
  8
0
  5
AF31
 10
2.66726
 20
0.666127
 30
0.000000
  70
    32
  0
VERTEX
  8
0
  5
AF32
 10
2.57546
 20
0.707793
 30
0.000000
  70
    32
  0
VERTEX
  8
0
  5
AF33
 10
2.48483
 20
0.750597
 30
0.000000
  70
    32
  0
VERTEX
  8
0
  5
AF34
 10
2.39540
 20
0.794525
 30
0.000000
  70
    32
  0
VERTEX
  8
0
  5
AF35
 10
2.30721
 20
0.839560
 30
0.000000
  70
    32
  0
VERTEX
  8
0
  5
AF36
 10
2.22028
 20
0.885687
 30
0.000000
  70
    32
  0
VERTEX
  8
0
  5
AF37
 10
2.13464
 20
0.932891
 30
0.000000
  70
    32
  0
VERTEX
  8
0
  5
AF38
 10
2.05033
 20
0.981156
 30
0.000000
  70
    32
  0
VERTEX
  8
0
  5
AF39
 10
1.96736
 20
1.03046
 30
0.000000
  70
    32
  0
VERTEX
  8
0
  5
AF3A
 10
1.88578
 20
1.08080
 30
0.000000
  70
    32
  0
VERTEX
  8
0
  5
AF3B
 10
1.80561
 20
1.13214
 30
0.000000
  70
    32
  0
VERTEX
  8
0
  5
AF3C
 10
1.72687
 20
1.18447
 30
0.000000
  70
    32
  0
VERTEX
  8
0
  5
AF3D
 10
1.64959
 20
1.23778
 30
0.000000
  70
    32
  0
VERTEX
  8
0
  5
AF3E
 10
1.57381
 20
1.29204
 30
0.000000
  70
    32
  0
VERTEX
  8
0
  5
AF3F
 10
1.49954
 20
1.34724
 30
0.000000
  70
    32
  0
VERTEX
  8
0
  5
AF40
 10
1.42682
 20
1.40336
 30
0.000000
  70
    32
  0
VERTEX
  8
0
  5
AF41
 10
1.35566
 20
1.46037
 30
0.000000
  70
    32
  0
VERTEX
  8
0
  5
AF42
 10
1.28609
 20
1.51826
 30
0.000000
  70
    32
  0
VERTEX
  8
0
  5
AF43
 10
1.21814
 20
1.57701
 30
0.000000
  70
    32
  0
VERTEX
  8
0
  5
AF44
 10
1.15183
 20
1.63659
 30
0.000000
  70
    32
  0
VERTEX
  8
0
  5
AF45
 10
1.08718
 20
1.69699
 30
0.000000
  70
    32
  0
VERTEX
  8
0
  5
AF46
 10
1.02422
 20
1.75819
 30
0.000000
  70
    32
  0
VERTEX
  8
0
  5
AF47
 10
0.962960
 20
1.82017
 30
0.000000
  70
    32
  0
VERTEX
  8
0
  5
AF48
 10
0.903430
 20
1.88289
 30
0.000000
  70
    32
  0
VERTEX
  8
0
  5
AF49
 10
0.845648
 20
1.94635
 30
0.000000
  70
    32
  0
VERTEX
  8
0
  5
AF4A
 10
0.789634
 20
2.01052
 30
0.000000
  70
    32
  0
VERTEX
  8
0
  5
AF4B
 10
0.735408
 20
2.07537
 30
0.000000
  70
    32
  0
VERTEX
  8
0
  5
AF4C
 10
0.682988
 20
2.14090
 30
0.000000
  70
    32
  0
VERTEX
  8
0
  5
AF4D
 10
0.632393
 20
2.20706
 30
0.000000
  70
    32
  0
VERTEX
  8
0
  5
AF4E
 10
0.583639
 20
2.27384
 30
0.000000
  70
    32
  0
VERTEX
  8
0
  5
AF4F
 10
0.536744
 20
2.34122
 30
0.000000
  70
    32
  0
VERTEX
  8
0
  5
AF50
 10
0.491724
 20
2.40918
 30
0.000000
  70
    32
  0
VERTEX
  8
0
  5
AF51
 10
0.448594
 20
2.47768
 30
0.000000
  70
    32
  0
VERTEX
  8
0
  5
AF52
 10
0.407370
 20
2.54671
 30
0.000000
  70
    32
  0
VERTEX
  8
0
  5
AF53
 10
0.368065
 20
2.61624
 30
0.000000
  70
    32
  0
VERTEX
  8
0
  5
AF54
 10
0.330694
 20
2.68625
 30
0.000000
  70
    32
  0
VERTEX
  8
0
  5
AF55
 10
0.295268
 20
2.75671
 30
0.000000
  70
    32
  0
VERTEX
  8
0
  5
AF56
 10
0.261801
 20
2.82761
 30
0.000000
  70
    32
  0
VERTEX
  8
0
  5
AF57
 10
0.230304
 20
2.89891
 30
0.000000
  70
    32
  0
VERTEX
  8
0
  5
AF58
 10
0.200788
 20
2.97059
 30
0.000000
  70
    32
  0
VERTEX
  8
0
  5
AF59
 10
0.173263
 20
3.04262
 30
0.000000
  70
    32
  0
VERTEX
  8
0
  5
AF5A
 10
0.147738
 20
3.11499
 30
0.000000
  70
    32
  0
VERTEX
  8
0
  5
AF5B
 10
0.124223
 20
3.18766
 30
0.000000
  70
    32
  0
VERTEX
  8
0
  5
AF5C
 10
0.102726
 20
3.26061
 30
0.000000
  70
    32
  0
VERTEX
  8
0
  5
AF5D
 10
0.0832528
 20
3.33382
 30
0.000000
  70
    32
  0
VERTEX
  8
0
  5
AF5E
 10
0.0658116
 20
3.40726
 30
0.000000
  70
    32
  0
VERTEX
  8
0
  5
AF5F
 10
0.0504082
 20
3.48090
 30
0.000000
  70
    32
  0
VERTEX
  8
0
  5
AF60
 10
0.0370478
 20
3.55473
 30
0.000000
  70
    32
  0
VERTEX
  8
0
  5
AF61
 10
0.0257349
 20
3.62870
 30
0.000000
  70
    32
  0
VERTEX
  8
0
  5
AF62
 10
0.0164737
 20
3.70281
 30
0.000000
  70
    32
  0
VERTEX
  8
0
  5
AF63
 10
0.00926714
 20
3.77702
 30
0.000000
  70
    32
  0
VERTEX
  8
0
  5
AF64
 10
0.00411784
 20
3.85130
 30
0.000000
  70
    32
  0
VERTEX
  8
0
  5
AF65
 10
0.00102755
 20
3.92564
 30
0.000000
  70
    32
  0
VERTEX
  8
0
  5
AF66
 10
-2.66905e-006
 20
4.00000
 30
0.000000
  70
    32
  0
SEQEND
  8
0
  5
AF67
  0
POLYLINE
  5
3DC0
  8
0
 10
13.657182712499907
 20
1.2860767647943647
 30
0.0
 66
     1
 70
     8
  0
VERTEX
  8
0
  5
AF68
 10
13.6572
 20
1.28608
 30
0.000000
  70
    32
  0
VERTEX
  8
0
  5
AF69
 10
13.7411
 20
1.23154
 30
0.000000
  70
    32
  0
VERTEX
  8
0
  5
AF6A
 10
13.8266
 20
1.17798
 30
0.000000
  70
    32
  0
VERTEX
  8
0
  5
AF6B
 10
13.9138
 20
1.12540
 30
0.000000
  70
    32
  0
VERTEX
  8
0
  5
AF6C
 10
14.0025
 20
1.07383
 30
0.000000
  70
    32
  0
VERTEX
  8
0
  5
AF6D
 10
14.0928
 20
1.02329
 30
0.000000
  70
    32
  0
VERTEX
  8
0
  5
AF6E
 10
14.1847
 20
0.973792
 30
0.000000
  70
    32
  0
VERTEX
  8
0
  5
AF6F
 10
14.2780
 20
0.925353
 30
0.000000
  70
    32
  0
VERTEX
  8
0
  5
AF70
 10
14.3729
 20
0.877993
 30
0.000000
  70
    32
  0
VERTEX
  8
0
  5
AF71
 10
14.4691
 20
0.831726
 30
0.000000
  70
    32
  0
VERTEX
  8
0
  5
AF72
 10
14.5668
 20
0.786570
 30
0.000000
  70
    32
  0
VERTEX
  8
0
  5
AF73
 10
14.6658
 20
0.742541
 30
0.000000
  70
    32
  0
VERTEX
  8
0
  5
AF74
 10
14.7661
 20
0.699653
 30
0.000000
  70
    32
  0
VERTEX
  8
0
  5
AF75
 10
14.8677
 20
0.657921
 30
0.000000
  70
    32
  0
VERTEX
  8
0
  5
AF76
 10
14.9706
 20
0.617362
 30
0.000000
  70
    32
  0
VERTEX
  8
0
  5
AF77
 10
15.0748
 20
0.577988
 30
0.000000
  70
    32
  0
VERTEX
  8
0
  5
AF78
 10
15.1801
 20
0.539813
 30
0.000000
  70
    32
  0
VERTEX
  8
0
  5
AF79
 10
15.2865
 20
0.502851
 30
0.000000
  70
    32
  0
VERTEX
  8
0
  5
AF7A
 10
15.3941
 20
0.467115
 30
0.000000
  70
    32
  0
VERTEX
  8
0
  5
AF7B
 10
15.5027
 20
0.432617
 30
0.000000
  70
    32
  0
VERTEX
  8
0
  5
AF7C
 10
15.6124
 20
0.399369
 30
0.000000
  70
    32
  0
VERTEX
  8
0
  5
AF7D
 10
15.7231
 20
0.367384
 30
0.000000
  70
    32
  0
VERTEX
  8
0
  5
AF7E
 10
15.8347
 20
0.336671
 30
0.000000
  70
    32
  0
VERTEX
  8
0
  5
AF7F
 10
15.9473
 20
0.307243
 30
0.000000
  70
    32
  0
VERTEX
  8
0
  5
AF80
 10
16.0608
 20
0.279109
 30
0.000000
  70
    32
  0
VERTEX
  8
0
  5
AF81
 10
16.1750
 20
0.252279
 30
0.000000
  70
    32
  0
VERTEX
  8
0
  5
AF82
 10
16.2901
 20
0.226763
 30
0.000000
  70
    32
  0
VERTEX
  8
0
  5
AF83
 10
16.4060
 20
0.202569
 30
0.000000
  70
    32
  0
VERTEX
  8
0
  5
AF84
 10
16.5225
 20
0.179707
 30
0.000000
  70
    32
  0
VERTEX
  8
0
  5
AF85
 10
16.6398
 20
0.158183
 30
0.000000
  70
    32
  0
VERTEX
  8
0
  5
AF86
 10
16.7577
 20
0.138006
 30
0.000000
  70
    32
  0
VERTEX
  8
0
  5
AF87
 10
16.8761
 20
0.119182
 30
0.000000
  70
    32
  0
VERTEX
  8
0
  5
AF88
 10
16.9952
 20
0.101719
 30
0.000000
  70
    32
  0
VERTEX
  8
0
  5
AF89
 10
17.1147
 20
0.0856223
 30
0.000000
  70
    32
  0
VERTEX
  8
0
  5
AF8A
 10
17.2348
 20
0.0708974
 30
0.000000
  70
    32
  0
VERTEX
  8
0
  5
AF8B
 10
17.3552
 20
0.0575496
 30
0.000000
  70
    32
  0
VERTEX
  8
0
  5
AF8C
 10
17.4761
 20
0.0455837
 30
0.000000
  70
    32
  0
VERTEX
  8
0
  5
AF8D
 10
17.5972
 20
0.0350037
 30
0.000000
  70
    32
  0
VERTEX
  8
0
  5
AF8E
 10
17.7187
 20
0.0258135
 30
0.000000
  70
    32
  0
VERTEX
  8
0
  5
AF8F
 10
17.8405
 20
0.0180163
 30
0.000000
  70
    32
  0
VERTEX
  8
0
  5
AF90
 10
17.9624
 20
0.0116148
 30
0.000000
  70
    32
  0
VERTEX
  8
0
  5
AF91
 10
18.0846
 20
0.00661115
 30
0.000000
  70
    32
  0
VERTEX
  8
0
  5
AF92
 10
18.2069
 20
0.00300722
 30
0.000000
  70
    32
  0
VERTEX
  8
0
  5
AF93
 10
18.3292
 20
0.000804239
 30
0.000000
  70
    32
  0
VERTEX
  8
0
  5
AF94
 10
18.4516
 20
2.97534e-006
 30
0.000000
  70
    32
  0
VERTEX
  8
0
  5
AF95
 10
18.5740
 20
0.000603712
 30
0.000000
  70
    32
  0
VERTEX
  8
0
  5
AF96
 10
18.6964
 20
0.00260624
 30
0.000000
  70
    32
  0
VERTEX
  8
0
  5
AF97
 10
18.8187
 20
0.00600985
 30
0.000000
  70
    32
  0
VERTEX
  8
0
  5
AF98
 10
18.9409
 20
0.0108134
 30
0.000000
  70
    32
  0
VERTEX
  8
0
  5
AF99
 10
19.0629
 20
0.0170151
 30
0.000000
  70
    32
  0
VERTEX
  8
0
  5
AF9A
 10
19.1847
 20
0.0246128
 30
0.000000
  70
    32
  0
VERTEX
  8
0
  5
AF9B
 10
19.3062
 20
0.0336040
 30
0.000000
  70
    32
  0
VERTEX
  8
0
  5
AF9C
 10
19.4274
 20
0.0439853
 30
0.000000
  70
    32
  0
VERTEX
  8
0
  5
AF9D
 10
19.5483
 20
0.0557533
 30
0.000000
  70
    32
  0
VERTEX
  8
0
  5
AF9E
 10
19.6688
 20
0.0689037
 30
0.000000
  70
    32
  0
VERTEX
  8
0
  5
AF9F
 10
19.7889
 20
0.0834319
 30
0.000000
  70
    32
  0
VERTEX
  8
0
  5
AFA0
 10
19.9086
 20
0.0993330
 30
0.000000
  70
    32
  0
VERTEX
  8
0
  5
AFA1
 10
20.0277
 20
0.116601
 30
0.000000
  70
    32
  0
VERTEX
  8
0
  5
AFA2
 10
20.1463
 20
0.135230
 30
0.000000
  70
    32
  0
VERTEX
  8
0
  5
AFA3
 10
20.2642
 20
0.155214
 30
0.000000
  70
    32
  0
VERTEX
  8
0
  5
AFA4
 10
20.3816
 20
0.176546
 30
0.000000
  70
    32
  0
VERTEX
  8
0
  5
AFA5
 10
20.4983
 20
0.199218
 30
0.000000
  70
    32
  0
VERTEX
  8
0
  5
AFA6
 10
20.6142
 20
0.223221
 30
0.000000
  70
    32
  0
VERTEX
  8
0
  5
AFA7
 10
20.7294
 20
0.248549
 30
0.000000
  70
    32
  0
VERTEX
  8
0
  5
AFA8
 10
20.8438
 20
0.275192
 30
0.000000
  70
    32
  0
VERTEX
  8
0
  5
AFA9
 10
20.9574
 20
0.303140
 30
0.000000
  70
    32
  0
VERTEX
  8
0
  5
AFAA
 10
21.0701
 20
0.332383
 30
0.000000
  70
    32
  0
VERTEX
  8
0
  5
AFAB
 10
21.1819
 20
0.362913
 30
0.000000
  70
    32
  0
VERTEX
  8
0
  5
AFAC
 10
21.2927
 20
0.394717
 30
0.000000
  70
    32
  0
VERTEX
  8
0
  5
AFAD
 10
21.4026
 20
0.427784
 30
0.000000
  70
    32
  0
VERTEX
  8
0
  5
AFAE
 10
21.5114
 20
0.462104
 30
0.000000
  70
    32
  0
VERTEX
  8
0
  5
AFAF
 10
21.6191
 20
0.497664
 30
0.000000
  70
    32
  0
VERTEX
  8
0
  5
AFB0
 10
21.7258
 20
0.534451
 30
0.000000
  70
    32
  0
VERTEX
  8
0
  5
AFB1
 10
21.8313
 20
0.572453
 30
0.000000
  70
    32
  0
VERTEX
  8
0
  5
AFB2
 10
21.9356
 20
0.611657
 30
0.000000
  70
    32
  0
VERTEX
  8
0
  5
AFB3
 10
22.0387
 20
0.652048
 30
0.000000
  70
    32
  0
VERTEX
  8
0
  5
AFB4
 10
22.1405
 20
0.693612
 30
0.000000
  70
    32
  0
VERTEX
  8
0
  5
AFB5
 10
22.2411
 20
0.736336
 30
0.000000
  70
    32
  0
VERTEX
  8
0
  5
AFB6
 10
22.3403
 20
0.780203
 30
0.000000
  70
    32
  0
VERTEX
  8
0
  5
AFB7
 10
22.4381
 20
0.825199
 30
0.000000
  70
    32
  0
VERTEX
  8
0
  5
AFB8
 10
22.5346
 20
0.871308
 30
0.000000
  70
    32
  0
VERTEX
  8
0
  5
AFB9
 10
22.6297
 20
0.918513
 30
0.000000
  70
    32
  0
VERTEX
  8
0
  5
AFBA
 10
22.7232
 20
0.966798
 30
0.000000
  70
    32
  0
VERTEX
  8
0
  5
AFBB
 10
22.8153
 20
1.01615
 30
0.000000
  70
    32
  0
VERTEX
  8
0
  5
AFBC
 10
22.9059
 20
1.06654
 30
0.000000
  70
    32
  0
VERTEX
  8
0
  5
AFBD
 10
22.9949
 20
1.11796
 30
0.000000
  70
    32
  0
VERTEX
  8
0
  5
AFBE
 10
23.0823
 20
1.17040
 30
0.000000
  70
    32
  0
VERTEX
  8
0
  5
AFBF
 10
23.1681
 20
1.22382
 30
0.000000
  70
    32
  0
VERTEX
  8
0
  5
AFC0
 10
23.2522
 20
1.27822
 30
0.000000
  70
    32
  0
VERTEX
  8
0
  5
AFC1
 10
23.3347
 20
1.33357
 30
0.000000
  70
    32
  0
VERTEX
  8
0
  5
AFC2
 10
23.4155
 20
1.38986
 30
0.000000
  70
    32
  0
VERTEX
  8
0
  5
AFC3
 10
23.4945
 20
1.44706
 30
0.000000
  70
    32
  0
VERTEX
  8
0
  5
AFC4
 10
23.5718
 20
1.50515
 30
0.000000
  70
    32
  0
VERTEX
  8
0
  5
AFC5
 10
23.6472
 20
1.56412
 30
0.000000
  70
    32
  0
VERTEX
  8
0
  5
AFC6
 10
23.7209
 20
1.62395
 30
0.000000
  70
    32
  0
VERTEX
  8
0
  5
AFC7
 10
23.7927
 20
1.68460
 30
0.000000
  70
    32
  0
VERTEX
  8
0
  5
AFC8
 10
23.8626
 20
1.74607
 30
0.000000
  70
    32
  0
VERTEX
  8
0
  5
AFC9
 10
23.9306
 20
1.80833
 30
0.000000
  70
    32
  0
VERTEX
  8
0
  5
AFCA
 10
23.9968
 20
1.87136
 30
0.000000
  70
    32
  0
VERTEX
  8
0
  5
AFCB
 10
24.0610
 20
1.93513
 30
0.000000
  70
    32
  0
VERTEX
  8
0
  5
AFCC
 10
24.1232
 20
1.99962
 30
0.000000
  70
    32
  0
VERTEX
  8
0
  5
AFCD
 10
24.1834
 20
2.06482
 30
0.000000
  70
    32
  0
VERTEX
  8
0
  5
AFCE
 10
24.2417
 20
2.13070
 30
0.000000
  70
    32
  0
VERTEX
  8
0
  5
AFCF
 10
24.2979
 20
2.19723
 30
0.000000
  70
    32
  0
VERTEX
  8
0
  5
AFD0
 10
24.3520
 20
2.26439
 30
0.000000
  70
    32
  0
VERTEX
  8
0
  5
AFD1
 10
24.4041
 20
2.33216
 30
0.000000
  70
    32
  0
VERTEX
  8
0
  5
AFD2
 10
24.4541
 20
2.40052
 30
0.000000
  70
    32
  0
VERTEX
  8
0
  5
AFD3
 10
24.5020
 20
2.46943
 30
0.000000
  70
    32
  0
VERTEX
  8
0
  5
AFD4
 10
24.5478
 20
2.53889
 30
0.000000
  70
    32
  0
VERTEX
  8
0
  5
AFD5
 10
24.5915
 20
2.60885
 30
0.000000
  70
    32
  0
VERTEX
  8
0
  5
AFD6
 10
24.6330
 20
2.67930
 30
0.000000
  70
    32
  0
VERTEX
  8
0
  5
AFD7
 10
24.6724
 20
2.75022
 30
0.000000
  70
    32
  0
VERTEX
  8
0
  5
AFD8
 10
24.7095
 20
2.82157
 30
0.000000
  70
    32
  0
VERTEX
  8
0
  5
AFD9
 10
24.7445
 20
2.89334
 30
0.000000
  70
    32
  0
VERTEX
  8
0
  5
AFDA
 10
24.7773
 20
2.96549
 30
0.000000
  70
    32
  0
VERTEX
  8
0
  5
AFDB
 10
24.8079
 20
3.03801
 30
0.000000
  70
    32
  0
VERTEX
  8
0
  5
AFDC
 10
24.8362
 20
3.11086
 30
0.000000
  70
    32
  0
VERTEX
  8
0
  5
AFDD
 10
24.8623
 20
3.18403
 30
0.000000
  70
    32
  0
VERTEX
  8
0
  5
AFDE
 10
24.8862
 20
3.25748
 30
0.000000
  70
    32
  0
VERTEX
  8
0
  5
AFDF
 10
24.9078
 20
3.33119
 30
0.000000
  70
    32
  0
VERTEX
  8
0
  5
AFE0
 10
24.9272
 20
3.40514
 30
0.000000
  70
    32
  0
VERTEX
  8
0
  5
AFE1
 10
24.9442
 20
3.47930
 30
0.000000
  70
    32
  0
VERTEX
  8
0
  5
AFE2
 10
24.9591
 20
3.55363
 30
0.000000
  70
    32
  0
VERTEX
  8
0
  5
AFE3
 10
24.9716
 20
3.62813
 30
0.000000
  70
    32
  0
VERTEX
  8
0
  5
AFE4
 10
24.9819
 20
3.70275
 30
0.000000
  70
    32
  0
VERTEX
  8
0
  5
AFE5
 10
24.9898
 20
3.77748
 30
0.000000
  70
    32
  0
VERTEX
  8
0
  5
AFE6
 10
24.9955
 20
3.85229
 30
0.000000
  70
    32
  0
VERTEX
  8
0
  5
AFE7
 10
24.9989
 20
3.92714
 30
0.000000
  70
    32
  0
VERTEX
  8
0
  5
AFE8
 10
25.0000
 20
4.00203
 30
0.000000
  70
    32
  0
SEQEND
  8
0
  5
AFE9
  0
ARC
  5
3DC1
  8
0
 10
12.000393210684249
 20
-1.2149327407200869
 30
0.0
 40
3.0
 50
56.477585336550057
 51
125.1204050528486
  0
ENDBLK
  5
3DC5
  8
0
  0
BLOCK
  8
0
  2
*D8
 70
     1
 10
0.0
 20
0.0
 30
0.0
  3
*D8
  1

  0
LINE
  5
AA64
  8
0
 62
     0
 10
3311.7817257303359
 20
1827.018372388919
 30
0.0
 11
3311.7817257303359
 21
1877.018372388919
 31
0.0
  0
LINE
  5
AA65
  8
0
 62
     0
 10
3338.7817278589459
 20
1827.018372388919
 30
0.0
 11
3338.7817278589459
 21
1877.018372388919
 31
0.0
  0
LINE
  5
AA66
  8
0
 62
     0
 10
3301.7817257303359
 20
1872.018372388919
 30
0.0
 11
3291.7817257303368
 21
1872.018372388919
 31
0.0
  0
LINE
  5
AA67
  8
0
 62
     0
 10
3348.781727858945
 20
1872.018372388919
 30
0.0
 11
3358.781727858945
 21
1872.018372388919
 31
0.0
  0
LINE
  5
AA68
  8
0
 62
     0
 10
3311.7817257303359
 20
1872.018372388919
 30
0.0
 11
3338.7817278589459
 21
1872.018372388919
 31
0.0
  0
SOLID
  5
AA69
  8
0
 62
     0
 10
3301.7817257303359
 20
1873.685039055586
 30
0.0
 11
3301.7817257303359
 21
1870.351705722253
 31
0.0
 12
3311.7817257303359
 22
1872.018372388919
 32
0.0
 13
3311.7817257303359
 23
1872.018372388919
 33
0.0
  0
SOLID
  5
AA6A
  8
0
 62
     0
 10
3348.781727858945
 20
1873.685039055586
 30
0.0
 11
3348.781727858945
 21
1870.351705722253
 31
0.0
 12
3338.7817278589459
 22
1872.018372388919
 32
0.0
 13
3338.7817278589459
 23
1872.018372388919
 33
0.0
  0
INSERT
  5
AA6B
  8
0
  2
*U44
 10
0.0
 20
0.0
 30
0.0
  0
POINT
  5
AA6C
  8
DEFPOINTS
 62
     0
 10
3311.7817257303359
 20
1822.018372388919
 30
0.0
  0
POINT
  5
AA6D
  8
DEFPOINTS
 62
     0
 10
3338.7817278589459
 20
1822.018372388919
 30
0.0
  0
POINT
  5
AA6E
  8
DEFPOINTS
 62
     0
 10
3338.7817278589459
 20
1872.018372388919
 30
0.0
  0
ENDBLK
  5
45E3
  8
0
  0
BLOCK
  8
0
  2
*D9
 70
     1
 10
0.0
 20
0.0
 30
0.0
  3
*D9
  1

  0
LINE
  5
495E
  8
0
 62
     0
 10
3624.006319074269
 20
139.90653830791291
 30
0.0
 11
3624.006319074269
 21
197.1236608738551
 31
0.0
  0
LINE
  5
495F
  8
0
 62
     0
 10
3694.0063226016619
 20
124.9832731993277
 30
0.0
 11
3694.0063226016619
 21
197.1236608738551
 31
0.0
  0
LINE
  5
4960
  8
0
 62
     0
 10
3634.006319074269
 20
192.1236608738551
 30
0.0
 11
3684.0063226016619
 21
192.1236608738551
 31
0.0
  0
SOLID
  5
4961
  8
0
 62
     0
 10
3634.006319074269
 20
193.7903275405217
 30
0.0
 11
3634.006319074269
 21
190.45699420718839
 31
0.0
 12
3624.006319074269
 22
192.1236608738551
 32
0.0
 13
3624.006319074269
 23
192.1236608738551
 33
0.0
  0
SOLID
  5
4962
  8
0
 62
     0
 10
3684.0063226016619
 20
193.7903275405217
 30
0.0
 11
3684.0063226016619
 21
190.45699420718839
 31
0.0
 12
3694.0063226016619
 22
192.1236608738551
 32
0.0
 13
3694.0063226016619
 23
192.1236608738551
 33
0.0
  0
INSERT
  5
4963
  8
0
  2
*U27
 10
0.0
 20
0.0
 30
0.0
  0
POINT
  5
4964
  8
DEFPOINTS
 62
     0
 10
3624.006319074269
 20
134.90653830791291
 30
0.0
  0
POINT
  5
4965
  8
DEFPOINTS
 62
     0
 10
3694.0063226016619
 20
119.9832731993277
 30
0.0
  0
POINT
  5
4966
  8
DEFPOINTS
 62
     0
 10
3694.0063226016619
 20
192.1236608738551
 30
0.0
  0
ENDBLK
  5
4967
  8
0
  0
BLOCK
  8
0
  2
A$C446D569E
 70
     0
 10
0.0
 20
0.0
 30
0.0
  3
A$C446D569E
  1

  0
DIMENSION
  5
4969
  8
0
  2
*D9
 10
70.000001398783752
 20
72.140387334013781
 30
0.0
 11
34.999999635087079
 21
84.640387334013795
 31
0.0
 12
-3624.0063212028781
 22
-119.98327353984131
 32
0.0
  3
ISO-25
 13
-0.0000021286095944
 23
14.92326476807159
 33
0.0
 14
70.000001398783752
 24
-0.0000003405135658
 34
0.0
1001
ACAD
1000
DSTYLE
1002
{
1070
    41
1040
10.0
1070
    42
1040
5.0
1070
    44
1040
5.0
1070
   147
1040
5.0
1070
   140
1040
15.0
1002
}
  0
ENDBLK
  5
496D
  8
0
  0
BLOCK
  8
0
  2
*D11
 70
     1
 10
0.0
 20
0.0
 30
0.0
  3
*D11
  1

  0
LINE
  5
AA59
  8
0
 62
     0
 10
3001.3986619564971
 20
1795.4383833822719
 30
0.0
 11
3035.1365387592068
 21
1795.4383833822719
 31
0.0
  0
LINE
  5
AA5A
  8
0
 62
     0
 10
3001.3986619564971
 20
1775.4383833822719
 30
0.0
 11
3035.1365387592068
 21
1775.4383833822719
 31
0.0
  0
LINE
  5
AA5B
  8
0
 62
     0
 10
3030.1365387592068
 20
1805.4383833822719
 30
0.0
 11
3030.1365387592068
 21
1815.4383833822719
 31
0.0
  0
LINE
  5
AA5C
  8
0
 62
     0
 10
3030.1365387592068
 20
1765.4383833822719
 30
0.0
 11
3030.1365387592068
 21
1722.9383833822719
 31
0.0
  0
LINE
  5
AA5D
  8
0
 62
     0
 10
3030.1365387592068
 20
1795.4383833822719
 30
0.0
 11
3030.1365387592068
 21
1775.4383833822719
 31
0.0
  0
SOLID
  5
AA5E
  8
0
 62
     0
 10
3028.4698720925398
 20
1805.4383833822719
 30
0.0
 11
3031.8032054258729
 21
1805.4383833822719
 31
0.0
 12
3030.1365387592068
 22
1795.4383833822719
 32
0.0
 13
3030.1365387592068
 23
1795.4383833822719
 33
0.0
  0
SOLID
  5
AA5F
  8
0
 62
     0
 10
3028.4698720925398
 20
1765.4383833822719
 30
0.0
 11
3031.8032054258729
 21
1765.4383833822719
 31
0.0
 12
3030.1365387592068
 22
1775.4383833822719
 32
0.0
 13
3030.1365387592068
 23
1775.4383833822719
 33
0.0
  0
INSERT
  5
AA60
  8
0
  2
*U43
 10
0.0
 20
0.0
 30
0.0
  0
POINT
  5
AA61
  8
DEFPOINTS
 62
     0
 10
2996.3986619564971
 20
1795.4383833822719
 30
0.0
  0
POINT
  5
AA62
  8
DEFPOINTS
 62
     0
 10
2996.3986619564971
 20
1775.4383833822719
 30
0.0
  0
POINT
  5
AA63
  8
DEFPOINTS
 62
     0
 10
3030.1365387592068
 20
1775.4383833822719
 30
0.0
  0
ENDBLK
  5
4984
  8
0
  0
BLOCK
  8
0
  2
*D12
 70
     1
 10
0.0
 20
0.0
 30
0.0
  3
*D12
  1

  0
LINE
  5
AA50
  8
0
 62
     0
 10
3664.7688816079371
 20
1522.0183723889229
 30
0.0
 11
3580.4373724542152
 21
1522.018372388924
 31
0.0
  0
LINE
  5
AA51
  8
0
 62
     0
 10
3664.872116986749
 20
1207.018372386098
 30
0.0
 11
3580.4373724542152
 21
1207.0183723860989
 31
0.0
  0
LINE
  5
AA52
  8
0
 62
     0
 10
3585.4373724542138
 20
1512.0183723889229
 30
0.0
 11
3585.4373724542138
 21
1217.0183723860989
 31
0.0
  0
SOLID
  5
AA53
  8
0
 62
     0
 10
3583.7707057875482
 20
1512.018372388924
 30
0.0
 11
3587.1040391208812
 21
1512.0183723889229
 31
0.0
 12
3585.4373724542138
 22
1522.0183723889229
 32
0.0
 13
3585.4373724542138
 23
1522.0183723889229
 33
0.0
  0
SOLID
  5
AA54
  8
0
 62
     0
 10
3583.7707057875482
 20
1217.0183723860989
 30
0.0
 11
3587.1040391208812
 21
1217.0183723860989
 31
0.0
 12
3585.4373724542138
 22
1207.018372386098
 32
0.0
 13
3585.4373724542138
 23
1207.018372386098
 33
0.0
  0
INSERT
  5
AA55
  8
0
  2
*U42
 10
0.0
 20
0.0
 30
0.0
  0
POINT
  5
AA56
  8
DEFPOINTS
 62
     0
 10
3669.7688816079371
 20
1522.0183723889229
 30
0.0
  0
POINT
  5
AA57
  8
DEFPOINTS
 62
     0
 10
3669.872116986749
 20
1207.018372386098
 30
0.0
  0
POINT
  5
AA58
  8
DEFPOINTS
 62
     0
 10
3585.4373724542138
 20
1207.018372386098
 30
0.0
  0
ENDBLK
  5
57C9
  8
0
  0
BLOCK
  8
0
  2
*D13
 70
     1
 10
0.0
 20
0.0
 30
0.0
  3
*D13
  1

  0
LINE
  5
AA47
  8
0
 62
     0
 10
3664.97535008352
 20
1502.0183723889229
 30
0.0
 11
3614.528290612986
 21
1502.0183723889229
 31
0.0
  0
LINE
  5
AA48
  8
0
 62
     0
 10
3664.8721233674828
 20
1207.0183723861039
 30
0.0
 11
3614.528290612986
 21
1207.0183723861039
 31
0.0
  0
LINE
  5
AA49
  8
0
 62
     0
 10
3619.5282906129851
 20
1492.0183723889229
 30
0.0
 11
3619.5282906129851
 21
1217.018372386103
 31
0.0
  0
SOLID
  5
AA4A
  8
0
 62
     0
 10
3617.861623946319
 20
1492.0183723889229
 30
0.0
 11
3621.194957279652
 21
1492.0183723889229
 31
0.0
 12
3619.5282906129851
 22
1502.0183723889229
 32
0.0
 13
3619.5282906129851
 23
1502.0183723889229
 33
0.0
  0
SOLID
  5
AA4B
  8
0
 62
     0
 10
3617.861623946319
 20
1217.018372386103
 30
0.0
 11
3621.194957279652
 21
1217.018372386103
 31
0.0
 12
3619.5282906129851
 22
1207.0183723861039
 32
0.0
 13
3619.5282906129851
 23
1207.0183723861039
 33
0.0
  0
INSERT
  5
AA4C
  8
0
  2
*U41
 10
0.0
 20
0.0
 30
0.0
  0
POINT
  5
AA4D
  8
DEFPOINTS
 62
     0
 10
3669.9753500835209
 20
1502.0183723889229
 30
0.0
  0
POINT
  5
AA4E
  8
DEFPOINTS
 62
     0
 10
3669.8721233674828
 20
1207.0183723861039
 30
0.0
  0
POINT
  5
AA4F
  8
DEFPOINTS
 62
     0
 10
3619.5282906129851
 20
1207.0183723861039
 30
0.0
  0
ENDBLK
  5
57D5
  8
0
  0
BLOCK
  8
0
  2
*D14
 70
     1
 10
0.0
 20
0.0
 30
0.0
  3
*D14
  1

  0
LINE
  5
AA3E
  8
0
 62
     0
 10
3663.6790365513129
 20
1515.36164849086
 30
0.0
 11
3663.6790365513129
 21
1572.5787710568029
 31
0.0
  0
LINE
  5
AA3F
  8
0
 62
     0
 10
3733.6790400787058
 20
1500.438383382276
 30
0.0
 11
3733.6790400787058
 21
1572.5787710568029
 31
0.0
  0
LINE
  5
AA40
  8
0
 62
     0
 10
3673.6790365513129
 20
1567.5787710568029
 30
0.0
 11
3723.6790400787058
 21
1567.5787710568029
 31
0.0
  0
SOLID
  5
AA41
  8
0
 62
     0
 10
3673.6790365513129
 20
1569.245437723469
 30
0.0
 11
3673.6790365513129
 21
1565.9121043901359
 31
0.0
 12
3663.6790365513129
 22
1567.5787710568029
 32
0.0
 13
3663.6790365513129
 23
1567.5787710568029
 33
0.0
  0
SOLID
  5
AA42
  8
0
 62
     0
 10
3723.6790400787058
 20
1569.245437723469
 30
0.0
 11
3723.6790400787058
 21
1565.9121043901359
 31
0.0
 12
3733.6790400787058
 22
1567.5787710568029
 32
0.0
 13
3733.6790400787058
 23
1567.5787710568029
 33
0.0
  0
INSERT
  5
AA43
  8
0
  2
*U40
 10
0.0
 20
0.0
 30
0.0
  0
POINT
  5
AA44
  8
DEFPOINTS
 62
     0
 10
3663.6790365513129
 20
1510.3616484908609
 30
0.0
  0
POINT
  5
AA45
  8
DEFPOINTS
 62
     0
 10
3733.6790400787058
 20
1495.438383382276
 30
0.0
  0
POINT
  5
AA46
  8
DEFPOINTS
 62
     0
 10
3733.6790400787058
 20
1567.5787710568029
 30
0.0
  0
ENDBLK
  5
57E1
  8
0
  0
BLOCK
  8
0
  2
*D15
 70
     1
 10
0.0
 20
0.0
 30
0.0
  3
*D15
  1

  0
LINE
  5
AA33
  8
0
 62
     0
 10
4064.471771879485
 20
1527.0183723889229
 30
0.0
 11
4064.471771879485
 21
1577.0183723889229
 31
0.0
  0
LINE
  5
AA34
  8
0
 62
     0
 10
4091.4717740080941
 20
1527.0183723889229
 30
0.0
 11
4091.4717740080941
 21
1577.0183723889229
 31
0.0
  0
LINE
  5
AA35
  8
0
 62
     0
 10
4054.4717718794859
 20
1572.0183723889229
 30
0.0
 11
4044.471771879485
 21
1572.0183723889229
 31
0.0
  0
LINE
  5
AA36
  8
0
 62
     0
 10
4101.4717740080941
 20
1572.0183723889229
 30
0.0
 11
4111.4717740080932
 21
1572.0183723889229
 31
0.0
  0
LINE
  5
AA37
  8
0
 62
     0
 10
4064.471771879485
 20
1572.0183723889229
 30
0.0
 11
4091.4717740080941
 21
1572.0183723889229
 31
0.0
  0
SOLID
  5
AA38
  8
0
 62
     0
 10
4054.4717718794859
 20
1573.6850390555901
 30
0.0
 11
4054.4717718794859
 21
1570.3517057222559
 31
0.0
 12
4064.471771879485
 22
1572.0183723889229
 32
0.0
 13
4064.471771879485
 23
1572.0183723889229
 33
0.0
  0
SOLID
  5
AA39
  8
0
 62
     0
 10
4101.4717740080941
 20
1573.6850390555901
 30
0.0
 11
4101.4717740080941
 21
1570.3517057222559
 31
0.0
 12
4091.4717740080941
 22
1572.0183723889229
 32
0.0
 13
4091.4717740080941
 23
1572.0183723889229
 33
0.0
  0
INSERT
  5
AA3A
  8
0
  2
*U39
 10
0.0
 20
0.0
 30
0.0
  0
POINT
  5
AA3B
  8
DEFPOINTS
 62
     0
 10
4064.471771879485
 20
1522.018372388922
 30
0.0
  0
POINT
  5
AA3C
  8
DEFPOINTS
 62
     0
 10
4091.4717740080941
 20
1522.0183723889229
 30
0.0
  0
POINT
  5
AA3D
  8
DEFPOINTS
 62
     0
 10
4091.4717740080941
 20
1572.0183723889229
 30
0.0
  0
ENDBLK
  5
57ED
  8
0
  0
BLOCK
  8
0
  2
*D16
 70
     1
 10
0.0
 20
0.0
 30
0.0
  3
*D16
  1

  0
LINE
  5
AA28
  8
0
 62
     0
 10
3754.0887081056462
 20
1495.438383382276
 30
0.0
 11
3787.826584908355
 21
1495.438383382276
 31
0.0
  0
LINE
  5
AA29
  8
0
 62
     0
 10
3754.0887081056462
 20
1475.4383833822751
 30
0.0
 11
3787.826584908355
 21
1475.4383833822751
 31
0.0
  0
LINE
  5
AA2A
  8
0
 62
     0
 10
3782.826584908355
 20
1505.438383382276
 30
0.0
 11
3782.826584908355
 21
1515.4383833822751
 31
0.0
  0
LINE
  5
AA2B
  8
0
 62
     0
 10
3782.826584908355
 20
1465.4383833822751
 30
0.0
 11
3782.826584908355
 21
1422.938383382274
 31
0.0
  0
LINE
  5
AA2C
  8
0
 62
     0
 10
3782.826584908355
 20
1495.438383382276
 30
0.0
 11
3782.826584908355
 21
1475.4383833822751
 31
0.0
  0
SOLID
  5
AA2D
  8
0
 62
     0
 10
3781.159918241689
 20
1505.438383382276
 30
0.0
 11
3784.493251575022
 21
1505.438383382276
 31
0.0
 12
3782.826584908355
 22
1495.438383382276
 32
0.0
 13
3782.826584908355
 23
1495.438383382276
 33
0.0
  0
SOLID
  5
AA2E
  8
0
 62
     0
 10
3781.159918241689
 20
1465.4383833822751
 30
0.0
 11
3784.493251575022
 21
1465.4383833822751
 31
0.0
 12
3782.826584908355
 22
1475.4383833822751
 32
0.0
 13
3782.826584908355
 23
1475.4383833822751
 33
0.0
  0
INSERT
  5
AA2F
  8
0
  2
*U38
 10
0.0
 20
0.0
 30
0.0
  0
POINT
  5
AA30
  8
DEFPOINTS
 62
     0
 10
3749.0887081056462
 20
1495.438383382276
 30
0.0
  0
POINT
  5
AA31
  8
DEFPOINTS
 62
     0
 10
3749.0887081056462
 20
1475.4383833822751
 30
0.0
  0
POINT
  5
AA32
  8
DEFPOINTS
 62
     0
 10
3782.826584908355
 20
1475.4383833822751
 30
0.0
  0
ENDBLK
  5
57FB
  8
0
  0
BLOCK
  8
0
  2
*D17
 70
     1
 10
0.0
 20
0.0
 30
0.0
  3
*D17
  1

  0
LINE
  5
8413
  8
0
 62
     0
 10
3245.7209619422401
 20
-3468.5122410420968
 30
0.0
 11
3194.6604318868822
 21
-3468.5122410420968
 31
0.0
  0
LINE
  5
8414
  8
0
 62
     0
 10
3245.7209619422401
 20
-4068.5122410420959
 30
0.0
 11
3194.6604318868822
 21
-4068.5122410420959
 31
0.0
  0
LINE
  5
8415
  8
0
 62
     0
 10
3199.6604318868822
 20
-3478.5122410420959
 30
0.0
 11
3199.6604318868822
 21
-4058.5122410420959
 31
0.0
  0
SOLID
  5
8416
  8
0
 62
     0
 10
3197.9937652202152
 20
-3478.5122410420959
 30
0.0
 11
3201.3270985535478
 21
-3478.5122410420959
 31
0.0
 12
3199.6604318868822
 22
-3468.5122410420968
 32
0.0
 13
3199.6604318868822
 23
-3468.5122410420968
 33
0.0
  0
SOLID
  5
8417
  8
0
 62
     0
 10
3197.9937652202152
 20
-4058.5122410420959
 30
0.0
 11
3201.3270985535478
 21
-4058.5122410420959
 31
0.0
 12
3199.6604318868822
 22
-4068.5122410420959
 32
0.0
 13
3199.6604318868822
 23
-4068.5122410420959
 33
0.0
  0
INSERT
  5
8418
  8
0
  2
*U31
 10
0.0
 20
0.0
 30
0.0
  0
POINT
  5
8419
  8
DEFPOINTS
 62
     0
 10
3250.7209619422388
 20
-3468.5122410420968
 30
0.0
  0
POINT
  5
841A
  8
DEFPOINTS
 62
     0
 10
3250.7209619422388
 20
-4068.5122410420959
 30
0.0
  0
POINT
  5
841B
  8
DEFPOINTS
 62
     0
 10
3199.6604318868822
 20
-4068.5122410420959
 30
0.0
  0
ENDBLK
  5
841C
  8
0
  0
BLOCK
  8
0
  2
A$C6EFD3AC3
 70
     0
 10
0.0
 20
0.0
 30
0.0
  3
A$C6EFD3AC3
  1

  0
LINE
  5
841E
  8
0
 10
311.06053088035969
 20
49.809740034771949
 30
0.0
 11
311.06053088035969
 21
649.80974003477195
 31
0.0
  0
LINE
  5
841F
  8
0
 10
71.060529034672072
 20
49.809736133146536
 30
0.0
 11
71.060529034672072
 21
649.80973613314654
 31
0.0
  0
LINE
  5
8420
  8
0
 10
311.06053088035969
 20
649.80974003477195
 30
0.0
 11
413.55372899591379
 21
649.80974003477195
 31
0.0
  0
LINE
  5
8421
  8
0
 10
311.06053088035969
 20
49.809740034771949
 30
0.0
 11
361.06053088035969
 21
49.809740034771949
 31
0.0
  0
LINE
  5
8422
  8
0
 10
316.06052453743899
 20
64.809738721262406
 30
0.0
 11
316.0605245374386
 21
634.80973872126242
 31
0.0
  0
ARC
  5
8423
  8
0
 10
319.06052453743911
 20
64.809738721262406
 30
0.0
 40
3.0
 50
180.0
 51
270.0
  0
ARC
  5
8424
  8
0
 10
319.0605245374386
 20
634.80973872126242
 30
0.0
 40
3.0
 50
90.0
 51
180.0
  0
LINE
  5
8425
  8
0
 10
322.06052453743899
 20
628.80973872126242
 30
0.0
 11
322.06052453743899
 21
604.80973872126242
 31
0.0
  0
ARC
  5
8426
  8
0
 10
325.06052453743911
 20
604.80973872126242
 30
0.0
 40
3.0
 50
180.0
 51
270.0
  0
ARC
  5
8427
  8
0
 10
325.06052453743911
 20
628.80973872126242
 30
0.0
 40
3.0
 50
90.0
 51
180.0
  0
LINE
  5
8428
  8
0
 10
322.06052453743899
 20
94.809738721262406
 30
0.0
 11
322.06052453743899
 21
70.80973872126242
 31
0.0
  0
ARC
  5
8429
  8
0
 10
325.06052453743911
 20
70.80973872126242
 30
0.0
 40
3.0
 50
180.0
 51
270.0
  0
ARC
  5
842A
  8
0
 10
325.06052453743911
 20
94.809738721262406
 30
0.0
 40
3.0
 50
90.0
 51
180.0
  0
LINE
  5
842B
  8
0
 10
341.0605245374382
 20
595.80973820232293
 30
0.0
 11
341.0605243562955
 21
103.8097382023229
 31
0.0
  0
LINE
  5
842C
  8
0
 10
341.0605245374382
 20
595.80973820232293
 30
0.0
 11
356.0605245374386
 21
595.80973820232293
 31
0.0
  0
LINE
  5
842D
  8
0
 10
316.0605245374386
 20
595.80973820232293
 30
0.0
 11
316.0605245374386
 21
103.8097382023229
 31
0.0
  0
LINE
  5
842E
  8
0
 10
341.0605243835621
 20
103.809329361447
 30
0.0
 11
356.06052453743899
 21
103.8097382023229
 31
0.0
  0
LINE
  5
842F
  8
0
 10
381.06052453743808
 20
595.80973820232293
 30
0.0
 11
381.06052442057899
 21
278.41071225437241
 31
0.0
  0
LINE
  5
8430
  8
0
 10
356.0605245374386
 20
595.80973820232293
 30
0.0
 11
356.0605245374386
 21
103.8097382023229
 31
0.0
  0
LINE
  5
8431
  8
0
 10
378.06052453743541
 20
599.17973961402856
 30
0.0
 11
378.06052453743769
 21
244.1205566817894
 31
0.0
  0
LINE
  5
8432
  8
0
 10
368.06052453743541
 20
598.02479952469855
 30
0.0
 11
368.10916726101459
 21
130.376022528801
 31
0.0
  0
LINE
  5
8433
  8
0
 10
361.06052453743541
 20
599.75379139331244
 30
0.0
 11
361.06052453743541
 21
99.864717433949863
 31
0.0
  0
POLYLINE
  5
8434
  8
0
 10
381.06052453743814
 20
595.80973820232271
 30
0.0
 66
     1
 70
     8
  0
VERTEX
  8
0
  5
AFEA
 10
381.061
 20
595.810
 30
0.000000
  70
    32
  0
VERTEX
  8
0
  5
AFEB
 10
381.059
 20
595.885
 30
0.000000
  70
    32
  0
VERTEX
  8
0
  5
AFEC
 10
381.056
 20
595.959
 30
0.000000
  70
    32
  0
VERTEX
  8
0
  5
AFED
 10
381.050
 20
596.034
 30
0.000000
  70
    32
  0
VERTEX
  8
0
  5
AFEE
 10
381.042
 20
596.109
 30
0.000000
  70
    32
  0
VERTEX
  8
0
  5
AFEF
 10
381.032
 20
596.183
 30
0.000000
  70
    32
  0
VERTEX
  8
0
  5
AFF0
 10
381.020
 20
596.258
 30
0.000000
  70
    32
  0
VERTEX
  8
0
  5
AFF1
 10
381.005
 20
596.332
 30
0.000000
  70
    32
  0
VERTEX
  8
0
  5
AFF2
 10
380.988
 20
596.406
 30
0.000000
  70
    32
  0
VERTEX
  8
0
  5
AFF3
 10
380.968
 20
596.480
 30
0.000000
  70
    32
  0
VERTEX
  8
0
  5
AFF4
 10
380.947
 20
596.554
 30
0.000000
  70
    32
  0
VERTEX
  8
0
  5
AFF5
 10
380.923
 20
596.627
 30
0.000000
  70
    32
  0
VERTEX
  8
0
  5
AFF6
 10
380.897
 20
596.700
 30
0.000000
  70
    32
  0
VERTEX
  8
0
  5
AFF7
 10
380.869
 20
596.773
 30
0.000000
  70
    32
  0
VERTEX
  8
0
  5
AFF8
 10
380.839
 20
596.845
 30
0.000000
  70
    32
  0
VERTEX
  8
0
  5
AFF9
 10
380.806
 20
596.918
 30
0.000000
  70
    32
  0
VERTEX
  8
0
  5
AFFA
 10
380.771
 20
596.989
 30
0.000000
  70
    32
  0
VERTEX
  8
0
  5
AFFB
 10
380.734
 20
597.061
 30
0.000000
  70
    32
  0
VERTEX
  8
0
  5
AFFC
 10
380.695
 20
597.131
 30
0.000000
  70
    32
  0
VERTEX
  8
0
  5
AFFD
 10
380.654
 20
597.202
 30
0.000000
  70
    32
  0
VERTEX
  8
0
  5
AFFE
 10
380.610
 20
597.272
 30
0.000000
  70
    32
  0
VERTEX
  8
0
  5
AFFF
 10
380.565
 20
597.341
 30
0.000000
  70
    32
  0
VERTEX
  8
0
  5
B000
 10
380.517
 20
597.410
 30
0.000000
  70
    32
  0
VERTEX
  8
0
  5
B001
 10
380.468
 20
597.478
 30
0.000000
  70
    32
  0
VERTEX
  8
0
  5
B002
 10
380.416
 20
597.546
 30
0.000000
  70
    32
  0
VERTEX
  8
0
  5
B003
 10
380.362
 20
597.613
 30
0.000000
  70
    32
  0
VERTEX
  8
0
  5
B004
 10
380.306
 20
597.680
 30
0.000000
  70
    32
  0
VERTEX
  8
0
  5
B005
 10
380.248
 20
597.745
 30
0.000000
  70
    32
  0
VERTEX
  8
0
  5
B006
 10
380.188
 20
597.811
 30
0.000000
  70
    32
  0
VERTEX
  8
0
  5
B007
 10
380.127
 20
597.875
 30
0.000000
  70
    32
  0
VERTEX
  8
0
  5
B008
 10
380.063
 20
597.939
 30
0.000000
  70
    32
  0
VERTEX
  8
0
  5
B009
 10
379.997
 20
598.002
 30
0.000000
  70
    32
  0
VERTEX
  8
0
  5
B00A
 10
379.929
 20
598.064
 30
0.000000
  70
    32
  0
VERTEX
  8
0
  5
B00B
 10
379.860
 20
598.125
 30
0.000000
  70
    32
  0
VERTEX
  8
0
  5
B00C
 10
379.789
 20
598.186
 30
0.000000
  70
    32
  0
VERTEX
  8
0
  5
B00D
 10
379.715
 20
598.246
 30
0.000000
  70
    32
  0
VERTEX
  8
0
  5
B00E
 10
379.640
 20
598.305
 30
0.000000
  70
    32
  0
VERTEX
  8
0
  5
B00F
 10
379.564
 20
598.363
 30
0.000000
  70
    32
  0
VERTEX
  8
0
  5
B010
 10
379.485
 20
598.420
 30
0.000000
  70
    32
  0
VERTEX
  8
0
  5
B011
 10
379.405
 20
598.476
 30
0.000000
  70
    32
  0
VERTEX
  8
0
  5
B012
 10
379.323
 20
598.531
 30
0.000000
  70
    32
  0
VERTEX
  8
0
  5
B013
 10
379.239
 20
598.586
 30
0.000000
  70
    32
  0
VERTEX
  8
0
  5
B014
 10
379.154
 20
598.639
 30
0.000000
  70
    32
  0
VERTEX
  8
0
  5
B015
 10
379.067
 20
598.691
 30
0.000000
  70
    32
  0
VERTEX
  8
0
  5
B016
 10
378.979
 20
598.743
 30
0.000000
  70
    32
  0
VERTEX
  8
0
  5
B017
 10
378.889
 20
598.793
 30
0.000000
  70
    32
  0
VERTEX
  8
0
  5
B018
 10
378.798
 20
598.843
 30
0.000000
  70
    32
  0
VERTEX
  8
0
  5
B019
 10
378.705
 20
598.891
 30
0.000000
  70
    32
  0
VERTEX
  8
0
  5
B01A
 10
378.610
 20
598.938
 30
0.000000
  70
    32
  0
VERTEX
  8
0
  5
B01B
 10
378.514
 20
598.984
 30
0.000000
  70
    32
  0
VERTEX
  8
0
  5
B01C
 10
378.417
 20
599.029
 30
0.000000
  70
    32
  0
VERTEX
  8
0
  5
B01D
 10
378.319
 20
599.073
 30
0.000000
  70
    32
  0
VERTEX
  8
0
  5
B01E
 10
378.219
 20
599.116
 30
0.000000
  70
    32
  0
VERTEX
  8
0
  5
B01F
 10
378.118
 20
599.157
 30
0.000000
  70
    32
  0
VERTEX
  8
0
  5
B020
 10
378.015
 20
599.197
 30
0.000000
  70
    32
  0
VERTEX
  8
0
  5
B021
 10
377.912
 20
599.237
 30
0.000000
  70
    32
  0
VERTEX
  8
0
  5
B022
 10
377.807
 20
599.275
 30
0.000000
  70
    32
  0
VERTEX
  8
0
  5
B023
 10
377.701
 20
599.311
 30
0.000000
  70
    32
  0
VERTEX
  8
0
  5
B024
 10
377.594
 20
599.347
 30
0.000000
  70
    32
  0
VERTEX
  8
0
  5
B025
 10
377.486
 20
599.381
 30
0.000000
  70
    32
  0
VERTEX
  8
0
  5
B026
 10
377.377
 20
599.414
 30
0.000000
  70
    32
  0
VERTEX
  8
0
  5
B027
 10
377.267
 20
599.446
 30
0.000000
  70
    32
  0
VERTEX
  8
0
  5
B028
 10
377.156
 20
599.477
 30
0.000000
  70
    32
  0
VERTEX
  8
0
  5
B029
 10
377.044
 20
599.506
 30
0.000000
  70
    32
  0
VERTEX
  8
0
  5
B02A
 10
376.931
 20
599.534
 30
0.000000
  70
    32
  0
VERTEX
  8
0
  5
B02B
 10
376.817
 20
599.560
 30
0.000000
  70
    32
  0
VERTEX
  8
0
  5
B02C
 10
376.703
 20
599.586
 30
0.000000
  70
    32
  0
VERTEX
  8
0
  5
B02D
 10
376.588
 20
599.610
 30
0.000000
  70
    32
  0
VERTEX
  8
0
  5
B02E
 10
376.472
 20
599.632
 30
0.000000
  70
    32
  0
VERTEX
  8
0
  5
B02F
 10
376.355
 20
599.654
 30
0.000000
  70
    32
  0
VERTEX
  8
0
  5
B030
 10
376.238
 20
599.674
 30
0.000000
  70
    32
  0
VERTEX
  8
0
  5
B031
 10
376.120
 20
599.692
 30
0.000000
  70
    32
  0
VERTEX
  8
0
  5
B032
 10
376.002
 20
599.710
 30
0.000000
  70
    32
  0
VERTEX
  8
0
  5
B033
 10
375.883
 20
599.725
 30
0.000000
  70
    32
  0
VERTEX
  8
0
  5
B034
 10
375.764
 20
599.740
 30
0.000000
  70
    32
  0
VERTEX
  8
0
  5
B035
 10
375.644
 20
599.753
 30
0.000000
  70
    32
  0
VERTEX
  8
0
  5
B036
 10
375.524
 20
599.765
 30
0.000000
  70
    32
  0
VERTEX
  8
0
  5
B037
 10
375.403
 20
599.775
 30
0.000000
  70
    32
  0
VERTEX
  8
0
  5
B038
 10
375.283
 20
599.784
 30
0.000000
  70
    32
  0
VERTEX
  8
0
  5
B039
 10
375.162
 20
599.792
 30
0.000000
  70
    32
  0
VERTEX
  8
0
  5
B03A
 10
375.041
 20
599.798
 30
0.000000
  70
    32
  0
VERTEX
  8
0
  5
B03B
 10
374.919
 20
599.803
 30
0.000000
  70
    32
  0
VERTEX
  8
0
  5
B03C
 10
374.798
 20
599.806
 30
0.000000
  70
    32
  0
VERTEX
  8
0
  5
B03D
 10
374.676
 20
599.809
 30
0.000000
  70
    32
  0
VERTEX
  8
0
  5
B03E
 10
374.555
 20
599.809
 30
0.000000
  70
    32
  0
VERTEX
  8
0
  5
B03F
 10
374.433
 20
599.808
 30
0.000000
  70
    32
  0
VERTEX
  8
0
  5
B040
 10
374.311
 20
599.806
 30
0.000000
  70
    32
  0
VERTEX
  8
0
  5
B041
 10
374.190
 20
599.803
 30
0.000000
  70
    32
  0
VERTEX
  8
0
  5
B042
 10
374.069
 20
599.798
 30
0.000000
  70
    32
  0
VERTEX
  8
0
  5
B043
 10
373.947
 20
599.791
 30
0.000000
  70
    32
  0
VERTEX
  8
0
  5
B044
 10
373.826
 20
599.784
 30
0.000000
  70
    32
  0
VERTEX
  8
0
  5
B045
 10
373.706
 20
599.774
 30
0.000000
  70
    32
  0
VERTEX
  8
0
  5
B046
 10
373.585
 20
599.764
 30
0.000000
  70
    32
  0
VERTEX
  8
0
  5
B047
 10
373.465
 20
599.752
 30
0.000000
  70
    32
  0
VERTEX
  8
0
  5
B048
 10
373.346
 20
599.739
 30
0.000000
  70
    32
  0
VERTEX
  8
0
  5
B049
 10
373.226
 20
599.724
 30
0.000000
  70
    32
  0
VERTEX
  8
0
  5
B04A
 10
373.108
 20
599.708
 30
0.000000
  70
    32
  0
VERTEX
  8
0
  5
B04B
 10
372.989
 20
599.691
 30
0.000000
  70
    32
  0
VERTEX
  8
0
  5
B04C
 10
372.872
 20
599.672
 30
0.000000
  70
    32
  0
VERTEX
  8
0
  5
B04D
 10
372.754
 20
599.652
 30
0.000000
  70
    32
  0
VERTEX
  8
0
  5
B04E
 10
372.638
 20
599.630
 30
0.000000
  70
    32
  0
VERTEX
  8
0
  5
B04F
 10
372.522
 20
599.607
 30
0.000000
  70
    32
  0
VERTEX
  8
0
  5
B050
 10
372.407
 20
599.583
 30
0.000000
  70
    32
  0
VERTEX
  8
0
  5
B051
 10
372.293
 20
599.558
 30
0.000000
  70
    32
  0
VERTEX
  8
0
  5
B052
 10
372.179
 20
599.531
 30
0.000000
  70
    32
  0
VERTEX
  8
0
  5
B053
 10
372.066
 20
599.503
 30
0.000000
  70
    32
  0
VERTEX
  8
0
  5
B054
 10
371.955
 20
599.474
 30
0.000000
  70
    32
  0
VERTEX
  8
0
  5
B055
 10
371.844
 20
599.443
 30
0.000000
  70
    32
  0
VERTEX
  8
0
  5
B056
 10
371.734
 20
599.411
 30
0.000000
  70
    32
  0
VERTEX
  8
0
  5
B057
 10
371.625
 20
599.378
 30
0.000000
  70
    32
  0
VERTEX
  8
0
  5
B058
 10
371.517
 20
599.343
 30
0.000000
  70
    32
  0
VERTEX
  8
0
  5
B059
 10
371.410
 20
599.308
 30
0.000000
  70
    32
  0
VERTEX
  8
0
  5
B05A
 10
371.304
 20
599.271
 30
0.000000
  70
    32
  0
VERTEX
  8
0
  5
B05B
 10
371.199
 20
599.233
 30
0.000000
  70
    32
  0
VERTEX
  8
0
  5
B05C
 10
371.096
 20
599.193
 30
0.000000
  70
    32
  0
VERTEX
  8
0
  5
B05D
 10
370.993
 20
599.153
 30
0.000000
  70
    32
  0
VERTEX
  8
0
  5
B05E
 10
370.892
 20
599.111
 30
0.000000
  70
    32
  0
VERTEX
  8
0
  5
B05F
 10
370.793
 20
599.069
 30
0.000000
  70
    32
  0
VERTEX
  8
0
  5
B060
 10
370.694
 20
599.025
 30
0.000000
  70
    32
  0
VERTEX
  8
0
  5
B061
 10
370.597
 20
598.980
 30
0.000000
  70
    32
  0
VERTEX
  8
0
  5
B062
 10
370.501
 20
598.933
 30
0.000000
  70
    32
  0
VERTEX
  8
0
  5
B063
 10
370.407
 20
598.886
 30
0.000000
  70
    32
  0
VERTEX
  8
0
  5
B064
 10
370.314
 20
598.838
 30
0.000000
  70
    32
  0
VERTEX
  8
0
  5
B065
 10
370.223
 20
598.788
 30
0.000000
  70
    32
  0
VERTEX
  8
0
  5
B066
 10
370.133
 20
598.738
 30
0.000000
  70
    32
  0
VERTEX
  8
0
  5
B067
 10
370.045
 20
598.686
 30
0.000000
  70
    32
  0
VERTEX
  8
0
  5
B068
 10
369.958
 20
598.634
 30
0.000000
  70
    32
  0
VERTEX
  8
0
  5
B069
 10
369.873
 20
598.580
 30
0.000000
  70
    32
  0
VERTEX
  8
0
  5
B06A
 10
369.790
 20
598.526
 30
0.000000
  70
    32
  0
SEQEND
  8
0
  5
B06B
  0
POLYLINE
  5
8435
  8
0
 10
366.40721024911363
 20
598.56705767981316
 30
0.0
 66
     1
 70
     8
  0
VERTEX
  8
0
  5
B06C
 10
366.407
 20
598.567
 30
0.000000
  70
    32
  0
VERTEX
  8
0
  5
B06D
 10
366.330
 20
598.620
 30
0.000000
  70
    32
  0
VERTEX
  8
0
  5
B06E
 10
366.250
 20
598.673
 30
0.000000
  70
    32
  0
VERTEX
  8
0
  5
B06F
 10
366.170
 20
598.724
 30
0.000000
  70
    32
  0
VERTEX
  8
0
  5
B070
 10
366.088
 20
598.775
 30
0.000000
  70
    32
  0
VERTEX
  8
0
  5
B071
 10
366.004
 20
598.824
 30
0.000000
  70
    32
  0
VERTEX
  8
0
  5
B072
 10
365.920
 20
598.873
 30
0.000000
  70
    32
  0
VERTEX
  8
0
  5
B073
 10
365.833
 20
598.920
 30
0.000000
  70
    32
  0
VERTEX
  8
0
  5
B074
 10
365.746
 20
598.966
 30
0.000000
  70
    32
  0
VERTEX
  8
0
  5
B075
 10
365.657
 20
599.011
 30
0.000000
  70
    32
  0
VERTEX
  8
0
  5
B076
 10
365.567
 20
599.055
 30
0.000000
  70
    32
  0
VERTEX
  8
0
  5
B077
 10
365.476
 20
599.098
 30
0.000000
  70
    32
  0
VERTEX
  8
0
  5
B078
 10
365.384
 20
599.140
 30
0.000000
  70
    32
  0
VERTEX
  8
0
  5
B079
 10
365.290
 20
599.181
 30
0.000000
  70
    32
  0
VERTEX
  8
0
  5
B07A
 10
365.196
 20
599.220
 30
0.000000
  70
    32
  0
VERTEX
  8
0
  5
B07B
 10
365.100
 20
599.259
 30
0.000000
  70
    32
  0
VERTEX
  8
0
  5
B07C
 10
365.003
 20
599.296
 30
0.000000
  70
    32
  0
VERTEX
  8
0
  5
B07D
 10
364.905
 20
599.332
 30
0.000000
  70
    32
  0
VERTEX
  8
0
  5
B07E
 10
364.807
 20
599.366
 30
0.000000
  70
    32
  0
VERTEX
  8
0
  5
B07F
 10
364.707
 20
599.400
 30
0.000000
  70
    32
  0
VERTEX
  8
0
  5
B080
 10
364.606
 20
599.432
 30
0.000000
  70
    32
  0
VERTEX
  8
0
  5
B081
 10
364.505
 20
599.463
 30
0.000000
  70
    32
  0
VERTEX
  8
0
  5
B082
 10
364.403
 20
599.492
 30
0.000000
  70
    32
  0
VERTEX
  8
0
  5
B083
 10
364.299
 20
599.521
 30
0.000000
  70
    32
  0
VERTEX
  8
0
  5
B084
 10
364.195
 20
599.548
 30
0.000000
  70
    32
  0
VERTEX
  8
0
  5
B085
 10
364.091
 20
599.574
 30
0.000000
  70
    32
  0
VERTEX
  8
0
  5
B086
 10
363.985
 20
599.598
 30
0.000000
  70
    32
  0
VERTEX
  8
0
  5
B087
 10
363.879
 20
599.622
 30
0.000000
  70
    32
  0
VERTEX
  8
0
  5
B088
 10
363.773
 20
599.643
 30
0.000000
  70
    32
  0
VERTEX
  8
0
  5
B089
 10
363.665
 20
599.664
 30
0.000000
  70
    32
  0
VERTEX
  8
0
  5
B08A
 10
363.558
 20
599.683
 30
0.000000
  70
    32
  0
VERTEX
  8
0
  5
B08B
 10
363.449
 20
599.701
 30
0.000000
  70
    32
  0
VERTEX
  8
0
  5
B08C
 10
363.340
 20
599.718
 30
0.000000
  70
    32
  0
VERTEX
  8
0
  5
B08D
 10
363.231
 20
599.733
 30
0.000000
  70
    32
  0
VERTEX
  8
0
  5
B08E
 10
363.122
 20
599.747
 30
0.000000
  70
    32
  0
VERTEX
  8
0
  5
B08F
 10
363.012
 20
599.759
 30
0.000000
  70
    32
  0
VERTEX
  8
0
  5
B090
 10
362.901
 20
599.770
 30
0.000000
  70
    32
  0
VERTEX
  8
0
  5
B091
 10
362.791
 20
599.780
 30
0.000000
  70
    32
  0
VERTEX
  8
0
  5
B092
 10
362.680
 20
599.788
 30
0.000000
  70
    32
  0
VERTEX
  8
0
  5
B093
 10
362.568
 20
599.795
 30
0.000000
  70
    32
  0
VERTEX
  8
0
  5
B094
 10
362.457
 20
599.801
 30
0.000000
  70
    32
  0
VERTEX
  8
0
  5
B095
 10
362.346
 20
599.805
 30
0.000000
  70
    32
  0
VERTEX
  8
0
  5
B096
 10
362.234
 20
599.808
 30
0.000000
  70
    32
  0
VERTEX
  8
0
  5
B097
 10
362.123
 20
599.810
 30
0.000000
  70
    32
  0
VERTEX
  8
0
  5
B098
 10
362.011
 20
599.810
 30
0.000000
  70
    32
  0
VERTEX
  8
0
  5
B099
 10
361.899
 20
599.808
 30
0.000000
  70
    32
  0
VERTEX
  8
0
  5
B09A
 10
361.788
 20
599.806
 30
0.000000
  70
    32
  0
VERTEX
  8
0
  5
B09B
 10
361.676
 20
599.802
 30
0.000000
  70
    32
  0
VERTEX
  8
0
  5
B09C
 10
361.565
 20
599.796
 30
0.000000
  70
    32
  0
VERTEX
  8
0
  5
B09D
 10
361.454
 20
599.789
 30
0.000000
  70
    32
  0
VERTEX
  8
0
  5
B09E
 10
361.343
 20
599.781
 30
0.000000
  70
    32
  0
VERTEX
  8
0
  5
B09F
 10
361.232
 20
599.771
 30
0.000000
  70
    32
  0
VERTEX
  8
0
  5
B0A0
 10
361.122
 20
599.761
 30
0.000000
  70
    32
  0
VERTEX
  8
0
  5
B0A1
 10
361.012
 20
599.748
 30
0.000000
  70
    32
  0
VERTEX
  8
0
  5
B0A2
 10
360.902
 20
599.734
 30
0.000000
  70
    32
  0
VERTEX
  8
0
  5
B0A3
 10
360.793
 20
599.719
 30
0.000000
  70
    32
  0
VERTEX
  8
0
  5
B0A4
 10
360.684
 20
599.703
 30
0.000000
  70
    32
  0
VERTEX
  8
0
  5
B0A5
 10
360.576
 20
599.685
 30
0.000000
  70
    32
  0
VERTEX
  8
0
  5
B0A6
 10
360.468
 20
599.666
 30
0.000000
  70
    32
  0
VERTEX
  8
0
  5
B0A7
 10
360.360
 20
599.646
 30
0.000000
  70
    32
  0
VERTEX
  8
0
  5
B0A8
 10
360.254
 20
599.624
 30
0.000000
  70
    32
  0
VERTEX
  8
0
  5
B0A9
 10
360.148
 20
599.601
 30
0.000000
  70
    32
  0
VERTEX
  8
0
  5
B0AA
 10
360.042
 20
599.577
 30
0.000000
  70
    32
  0
VERTEX
  8
0
  5
B0AB
 10
359.937
 20
599.551
 30
0.000000
  70
    32
  0
VERTEX
  8
0
  5
B0AC
 10
359.833
 20
599.524
 30
0.000000
  70
    32
  0
VERTEX
  8
0
  5
B0AD
 10
359.730
 20
599.496
 30
0.000000
  70
    32
  0
VERTEX
  8
0
  5
B0AE
 10
359.628
 20
599.466
 30
0.000000
  70
    32
  0
VERTEX
  8
0
  5
B0AF
 10
359.526
 20
599.435
 30
0.000000
  70
    32
  0
VERTEX
  8
0
  5
B0B0
 10
359.425
 20
599.403
 30
0.000000
  70
    32
  0
VERTEX
  8
0
  5
B0B1
 10
359.326
 20
599.370
 30
0.000000
  70
    32
  0
VERTEX
  8
0
  5
B0B2
 10
359.227
 20
599.336
 30
0.000000
  70
    32
  0
VERTEX
  8
0
  5
B0B3
 10
359.129
 20
599.300
 30
0.000000
  70
    32
  0
VERTEX
  8
0
  5
B0B4
 10
359.032
 20
599.263
 30
0.000000
  70
    32
  0
VERTEX
  8
0
  5
B0B5
 10
358.936
 20
599.225
 30
0.000000
  70
    32
  0
VERTEX
  8
0
  5
B0B6
 10
358.841
 20
599.185
 30
0.000000
  70
    32
  0
VERTEX
  8
0
  5
B0B7
 10
358.748
 20
599.145
 30
0.000000
  70
    32
  0
VERTEX
  8
0
  5
B0B8
 10
358.655
 20
599.103
 30
0.000000
  70
    32
  0
VERTEX
  8
0
  5
B0B9
 10
358.564
 20
599.060
 30
0.000000
  70
    32
  0
VERTEX
  8
0
  5
B0BA
 10
358.474
 20
599.016
 30
0.000000
  70
    32
  0
VERTEX
  8
0
  5
B0BB
 10
358.385
 20
598.971
 30
0.000000
  70
    32
  0
VERTEX
  8
0
  5
B0BC
 10
358.298
 20
598.925
 30
0.000000
  70
    32
  0
VERTEX
  8
0
  5
B0BD
 10
358.211
 20
598.878
 30
0.000000
  70
    32
  0
VERTEX
  8
0
  5
B0BE
 10
358.126
 20
598.830
 30
0.000000
  70
    32
  0
VERTEX
  8
0
  5
B0BF
 10
358.043
 20
598.781
 30
0.000000
  70
    32
  0
VERTEX
  8
0
  5
B0C0
 10
357.961
 20
598.730
 30
0.000000
  70
    32
  0
VERTEX
  8
0
  5
B0C1
 10
357.880
 20
598.679
 30
0.000000
  70
    32
  0
VERTEX
  8
0
  5
B0C2
 10
357.800
 20
598.626
 30
0.000000
  70
    32
  0
VERTEX
  8
0
  5
B0C3
 10
357.723
 20
598.573
 30
0.000000
  70
    32
  0
VERTEX
  8
0
  5
B0C4
 10
357.646
 20
598.519
 30
0.000000
  70
    32
  0
VERTEX
  8
0
  5
B0C5
 10
357.571
 20
598.464
 30
0.000000
  70
    32
  0
VERTEX
  8
0
  5
B0C6
 10
357.498
 20
598.408
 30
0.000000
  70
    32
  0
VERTEX
  8
0
  5
B0C7
 10
357.426
 20
598.351
 30
0.000000
  70
    32
  0
VERTEX
  8
0
  5
B0C8
 10
357.356
 20
598.293
 30
0.000000
  70
    32
  0
VERTEX
  8
0
  5
B0C9
 10
357.288
 20
598.234
 30
0.000000
  70
    32
  0
VERTEX
  8
0
  5
B0CA
 10
357.221
 20
598.174
 30
0.000000
  70
    32
  0
VERTEX
  8
0
  5
B0CB
 10
357.156
 20
598.114
 30
0.000000
  70
    32
  0
VERTEX
  8
0
  5
B0CC
 10
357.092
 20
598.053
 30
0.000000
  70
    32
  0
VERTEX
  8
0
  5
B0CD
 10
357.031
 20
597.991
 30
0.000000
  70
    32
  0
VERTEX
  8
0
  5
B0CE
 10
356.971
 20
597.928
 30
0.000000
  70
    32
  0
VERTEX
  8
0
  5
B0CF
 10
356.913
 20
597.864
 30
0.000000
  70
    32
  0
VERTEX
  8
0
  5
B0D0
 10
356.856
 20
597.800
 30
0.000000
  70
    32
  0
VERTEX
  8
0
  5
B0D1
 10
356.802
 20
597.735
 30
0.000000
  70
    32
  0
VERTEX
  8
0
  5
B0D2
 10
356.749
 20
597.670
 30
0.000000
  70
    32
  0
VERTEX
  8
0
  5
B0D3
 10
356.698
 20
597.604
 30
0.000000
  70
    32
  0
VERTEX
  8
0
  5
B0D4
 10
356.649
 20
597.537
 30
0.000000
  70
    32
  0
VERTEX
  8
0
  5
B0D5
 10
356.601
 20
597.469
 30
0.000000
  70
    32
  0
VERTEX
  8
0
  5
B0D6
 10
356.556
 20
597.401
 30
0.000000
  70
    32
  0
VERTEX
  8
0
  5
B0D7
 10
356.513
 20
597.333
 30
0.000000
  70
    32
  0
VERTEX
  8
0
  5
B0D8
 10
356.471
 20
597.264
 30
0.000000
  70
    32
  0
VERTEX
  8
0
  5
B0D9
 10
356.431
 20
597.194
 30
0.000000
  70
    32
  0
VERTEX
  8
0
  5
B0DA
 10
356.394
 20
597.124
 30
0.000000
  70
    32
  0
VERTEX
  8
0
  5
B0DB
 10
356.358
 20
597.054
 30
0.000000
  70
    32
  0
VERTEX
  8
0
  5
B0DC
 10
356.324
 20
596.983
 30
0.000000
  70
    32
  0
VERTEX
  8
0
  5
B0DD
 10
356.293
 20
596.911
 30
0.000000
  70
    32
  0
VERTEX
  8
0
  5
B0DE
 10
356.263
 20
596.840
 30
0.000000
  70
    32
  0
VERTEX
  8
0
  5
B0DF
 10
356.235
 20
596.768
 30
0.000000
  70
    32
  0
VERTEX
  8
0
  5
B0E0
 10
356.209
 20
596.695
 30
0.000000
  70
    32
  0
VERTEX
  8
0
  5
B0E1
 10
356.186
 20
596.623
 30
0.000000
  70
    32
  0
VERTEX
  8
0
  5
B0E2
 10
356.164
 20
596.550
 30
0.000000
  70
    32
  0
VERTEX
  8
0
  5
B0E3
 10
356.144
 20
596.476
 30
0.000000
  70
    32
  0
VERTEX
  8
0
  5
B0E4
 10
356.127
 20
596.403
 30
0.000000
  70
    32
  0
VERTEX
  8
0
  5
B0E5
 10
356.111
 20
596.329
 30
0.000000
  70
    32
  0
VERTEX
  8
0
  5
B0E6
 10
356.098
 20
596.255
 30
0.000000
  70
    32
  0
VERTEX
  8
0
  5
B0E7
 10
356.086
 20
596.181
 30
0.000000
  70
    32
  0
VERTEX
  8
0
  5
B0E8
 10
356.077
 20
596.107
 30
0.000000
  70
    32
  0
VERTEX
  8
0
  5
B0E9
 10
356.070
 20
596.033
 30
0.000000
  70
    32
  0
VERTEX
  8
0
  5
B0EA
 10
356.065
 20
595.959
 30
0.000000
  70
    32
  0
VERTEX
  8
0
  5
B0EB
 10
356.062
 20
595.884
 30
0.000000
  70
    32
  0
VERTEX
  8
0
  5
B0EC
 10
356.061
 20
595.810
 30
0.000000
  70
    32
  0
SEQEND
  8
0
  5
B0ED
  0
ARC
  5
8436
  8
0
 10
368.12863567834978
 20
601.02402623711748
 30
0.0
 40
3.0
 50
234.9837682940298
 51
303.62354293436641
  0
POLYLINE
  5
8437
  8
0
 10
365.49800552705216
 20
100.53030733864324
 30
0.0
 66
     1
 70
     8
  0
VERTEX
  8
0
  5
B0EE
 10
365.498
 20
100.530
 30
0.000000
  70
    32
  0
VERTEX
  8
0
  5
B0EF
 10
365.414
 20
100.492
 30
0.000000
  70
    32
  0
VERTEX
  8
0
  5
B0F0
 10
365.328
 20
100.454
 30
0.000000
  70
    32
  0
VERTEX
  8
0
  5
B0F1
 10
365.242
 20
100.417
 30
0.000000
  70
    32
  0
VERTEX
  8
0
  5
B0F2
 10
365.155
 20
100.382
 30
0.000000
  70
    32
  0
VERTEX
  8
0
  5
B0F3
 10
365.067
 20
100.347
 30
0.000000
  70
    32
  0
VERTEX
  8
0
  5
B0F4
 10
364.978
 20
100.314
 30
0.000000
  70
    32
  0
VERTEX
  8
0
  5
B0F5
 10
364.888
 20
100.281
 30
0.000000
  70
    32
  0
VERTEX
  8
0
  5
B0F6
 10
364.798
 20
100.249
 30
0.000000
  70
    32
  0
VERTEX
  8
0
  5
B0F7
 10
364.706
 20
100.219
 30
0.000000
  70
    32
  0
VERTEX
  8
0
  5
B0F8
 10
364.614
 20
100.189
 30
0.000000
  70
    32
  0
VERTEX
  8
0
  5
B0F9
 10
364.521
 20
100.161
 30
0.000000
  70
    32
  0
VERTEX
  8
0
  5
B0FA
 10
364.428
 20
100.133
 30
0.000000
  70
    32
  0
VERTEX
  8
0
  5
B0FB
 10
364.334
 20
100.107
 30
0.000000
  70
    32
  0
VERTEX
  8
0
  5
B0FC
 10
364.239
 20
100.082
 30
0.000000
  70
    32
  0
VERTEX
  8
0
  5
B0FD
 10
364.143
 20
100.057
 30
0.000000
  70
    32
  0
VERTEX
  8
0
  5
B0FE
 10
364.047
 20
100.034
 30
0.000000
  70
    32
  0
VERTEX
  8
0
  5
B0FF
 10
363.950
 20
100.012
 30
0.000000
  70
    32
  0
VERTEX
  8
0
  5
B100
 10
363.853
 20
99.9914
 30
0.000000
  70
    32
  0
VERTEX
  8
0
  5
B101
 10
363.755
 20
99.9716
 30
0.000000
  70
    32
  0
VERTEX
  8
0
  5
B102
 10
363.657
 20
99.9529
 30
0.000000
  70
    32
  0
VERTEX
  8
0
  5
B103
 10
363.558
 20
99.9353
 30
0.000000
  70
    32
  0
VERTEX
  8
0
  5
B104
 10
363.459
 20
99.9189
 30
0.000000
  70
    32
  0
VERTEX
  8
0
  5
B105
 10
363.359
 20
99.9036
 30
0.000000
  70
    32
  0
VERTEX
  8
0
  5
B106
 10
363.259
 20
99.8894
 30
0.000000
  70
    32
  0
VERTEX
  8
0
  5
B107
 10
363.159
 20
99.8763
 30
0.000000
  70
    32
  0
VERTEX
  8
0
  5
B108
 10
363.058
 20
99.8644
 30
0.000000
  70
    32
  0
VERTEX
  8
0
  5
B109
 10
362.957
 20
99.8537
 30
0.000000
  70
    32
  0
VERTEX
  8
0
  5
B10A
 10
362.856
 20
99.8441
 30
0.000000
  70
    32
  0
VERTEX
  8
0
  5
B10B
 10
362.754
 20
99.8356
 30
0.000000
  70
    32
  0
VERTEX
  8
0
  5
B10C
 10
362.653
 20
99.8283
 30
0.000000
  70
    32
  0
VERTEX
  8
0
  5
B10D
 10
362.551
 20
99.8222
 30
0.000000
  70
    32
  0
VERTEX
  8
0
  5
B10E
 10
362.449
 20
99.8172
 30
0.000000
  70
    32
  0
VERTEX
  8
0
  5
B10F
 10
362.347
 20
99.8133
 30
0.000000
  70
    32
  0
VERTEX
  8
0
  5
B110
 10
362.245
 20
99.8107
 30
0.000000
  70
    32
  0
VERTEX
  8
0
  5
B111
 10
362.143
 20
99.8091
 30
0.000000
  70
    32
  0
VERTEX
  8
0
  5
B112
 10
362.040
 20
99.8088
 30
0.000000
  70
    32
  0
VERTEX
  8
0
  5
B113
 10
361.938
 20
99.8096
 30
0.000000
  70
    32
  0
VERTEX
  8
0
  5
B114
 10
361.836
 20
99.8116
 30
0.000000
  70
    32
  0
VERTEX
  8
0
  5
B115
 10
361.734
 20
99.8147
 30
0.000000
  70
    32
  0
VERTEX
  8
0
  5
B116
 10
361.632
 20
99.8190
 30
0.000000
  70
    32
  0
VERTEX
  8
0
  5
B117
 10
361.530
 20
99.8245
 30
0.000000
  70
    32
  0
VERTEX
  8
0
  5
B118
 10
361.428
 20
99.8311
 30
0.000000
  70
    32
  0
VERTEX
  8
0
  5
B119
 10
361.326
 20
99.8388
 30
0.000000
  70
    32
  0
VERTEX
  8
0
  5
B11A
 10
361.225
 20
99.8477
 30
0.000000
  70
    32
  0
VERTEX
  8
0
  5
B11B
 10
361.124
 20
99.8578
 30
0.000000
  70
    32
  0
VERTEX
  8
0
  5
B11C
 10
361.023
 20
99.8690
 30
0.000000
  70
    32
  0
VERTEX
  8
0
  5
B11D
 10
360.923
 20
99.8814
 30
0.000000
  70
    32
  0
VERTEX
  8
0
  5
B11E
 10
360.822
 20
99.8949
 30
0.000000
  70
    32
  0
VERTEX
  8
0
  5
B11F
 10
360.723
 20
99.9095
 30
0.000000
  70
    32
  0
VERTEX
  8
0
  5
B120
 10
360.623
 20
99.9253
 30
0.000000
  70
    32
  0
VERTEX
  8
0
  5
B121
 10
360.524
 20
99.9422
 30
0.000000
  70
    32
  0
VERTEX
  8
0
  5
B122
 10
360.425
 20
99.9602
 30
0.000000
  70
    32
  0
VERTEX
  8
0
  5
B123
 10
360.327
 20
99.9793
 30
0.000000
  70
    32
  0
VERTEX
  8
0
  5
B124
 10
360.230
 20
99.9995
 30
0.000000
  70
    32
  0
VERTEX
  8
0
  5
B125
 10
360.133
 20
100.021
 30
0.000000
  70
    32
  0
VERTEX
  8
0
  5
B126
 10
360.036
 20
100.043
 30
0.000000
  70
    32
  0
VERTEX
  8
0
  5
B127
 10
359.940
 20
100.067
 30
0.000000
  70
    32
  0
VERTEX
  8
0
  5
B128
 10
359.845
 20
100.092
 30
0.000000
  70
    32
  0
VERTEX
  8
0
  5
B129
 10
359.750
 20
100.117
 30
0.000000
  70
    32
  0
VERTEX
  8
0
  5
B12A
 10
359.656
 20
100.144
 30
0.000000
  70
    32
  0
VERTEX
  8
0
  5
B12B
 10
359.563
 20
100.172
 30
0.000000
  70
    32
  0
VERTEX
  8
0
  5
B12C
 10
359.470
 20
100.201
 30
0.000000
  70
    32
  0
VERTEX
  8
0
  5
B12D
 10
359.378
 20
100.231
 30
0.000000
  70
    32
  0
VERTEX
  8
0
  5
B12E
 10
359.287
 20
100.262
 30
0.000000
  70
    32
  0
VERTEX
  8
0
  5
B12F
 10
359.197
 20
100.294
 30
0.000000
  70
    32
  0
VERTEX
  8
0
  5
B130
 10
359.108
 20
100.327
 30
0.000000
  70
    32
  0
VERTEX
  8
0
  5
B131
 10
359.019
 20
100.361
 30
0.000000
  70
    32
  0
VERTEX
  8
0
  5
B132
 10
358.931
 20
100.396
 30
0.000000
  70
    32
  0
VERTEX
  8
0
  5
B133
 10
358.845
 20
100.432
 30
0.000000
  70
    32
  0
VERTEX
  8
0
  5
B134
 10
358.759
 20
100.469
 30
0.000000
  70
    32
  0
VERTEX
  8
0
  5
B135
 10
358.674
 20
100.507
 30
0.000000
  70
    32
  0
VERTEX
  8
0
  5
B136
 10
358.590
 20
100.546
 30
0.000000
  70
    32
  0
VERTEX
  8
0
  5
B137
 10
358.507
 20
100.586
 30
0.000000
  70
    32
  0
VERTEX
  8
0
  5
B138
 10
358.425
 20
100.627
 30
0.000000
  70
    32
  0
VERTEX
  8
0
  5
B139
 10
358.344
 20
100.668
 30
0.000000
  70
    32
  0
VERTEX
  8
0
  5
B13A
 10
358.265
 20
100.711
 30
0.000000
  70
    32
  0
VERTEX
  8
0
  5
B13B
 10
358.186
 20
100.755
 30
0.000000
  70
    32
  0
VERTEX
  8
0
  5
B13C
 10
358.109
 20
100.799
 30
0.000000
  70
    32
  0
VERTEX
  8
0
  5
B13D
 10
358.032
 20
100.844
 30
0.000000
  70
    32
  0
VERTEX
  8
0
  5
B13E
 10
357.957
 20
100.891
 30
0.000000
  70
    32
  0
VERTEX
  8
0
  5
B13F
 10
357.883
 20
100.938
 30
0.000000
  70
    32
  0
VERTEX
  8
0
  5
B140
 10
357.810
 20
100.985
 30
0.000000
  70
    32
  0
VERTEX
  8
0
  5
B141
 10
357.739
 20
101.034
 30
0.000000
  70
    32
  0
VERTEX
  8
0
  5
B142
 10
357.668
 20
101.084
 30
0.000000
  70
    32
  0
VERTEX
  8
0
  5
B143
 10
357.599
 20
101.134
 30
0.000000
  70
    32
  0
VERTEX
  8
0
  5
B144
 10
357.532
 20
101.185
 30
0.000000
  70
    32
  0
VERTEX
  8
0
  5
B145
 10
357.465
 20
101.237
 30
0.000000
  70
    32
  0
VERTEX
  8
0
  5
B146
 10
357.400
 20
101.289
 30
0.000000
  70
    32
  0
VERTEX
  8
0
  5
B147
 10
357.336
 20
101.343
 30
0.000000
  70
    32
  0
VERTEX
  8
0
  5
B148
 10
357.274
 20
101.397
 30
0.000000
  70
    32
  0
VERTEX
  8
0
  5
B149
 10
357.213
 20
101.451
 30
0.000000
  70
    32
  0
VERTEX
  8
0
  5
B14A
 10
357.154
 20
101.507
 30
0.000000
  70
    32
  0
VERTEX
  8
0
  5
B14B
 10
357.096
 20
101.563
 30
0.000000
  70
    32
  0
VERTEX
  8
0
  5
B14C
 10
357.039
 20
101.620
 30
0.000000
  70
    32
  0
VERTEX
  8
0
  5
B14D
 10
356.984
 20
101.677
 30
0.000000
  70
    32
  0
VERTEX
  8
0
  5
B14E
 10
356.930
 20
101.735
 30
0.000000
  70
    32
  0
VERTEX
  8
0
  5
B14F
 10
356.878
 20
101.794
 30
0.000000
  70
    32
  0
VERTEX
  8
0
  5
B150
 10
356.827
 20
101.853
 30
0.000000
  70
    32
  0
VERTEX
  8
0
  5
B151
 10
356.778
 20
101.912
 30
0.000000
  70
    32
  0
VERTEX
  8
0
  5
B152
 10
356.730
 20
101.973
 30
0.000000
  70
    32
  0
VERTEX
  8
0
  5
B153
 10
356.684
 20
102.034
 30
0.000000
  70
    32
  0
VERTEX
  8
0
  5
B154
 10
356.639
 20
102.095
 30
0.000000
  70
    32
  0
VERTEX
  8
0
  5
B155
 10
356.596
 20
102.157
 30
0.000000
  70
    32
  0
VERTEX
  8
0
  5
B156
 10
356.555
 20
102.219
 30
0.000000
  70
    32
  0
VERTEX
  8
0
  5
B157
 10
356.515
 20
102.282
 30
0.000000
  70
    32
  0
VERTEX
  8
0
  5
B158
 10
356.477
 20
102.345
 30
0.000000
  70
    32
  0
VERTEX
  8
0
  5
B159
 10
356.440
 20
102.409
 30
0.000000
  70
    32
  0
VERTEX
  8
0
  5
B15A
 10
356.405
 20
102.473
 30
0.000000
  70
    32
  0
VERTEX
  8
0
  5
B15B
 10
356.372
 20
102.537
 30
0.000000
  70
    32
  0
VERTEX
  8
0
  5
B15C
 10
356.340
 20
102.602
 30
0.000000
  70
    32
  0
VERTEX
  8
0
  5
B15D
 10
356.310
 20
102.667
 30
0.000000
  70
    32
  0
VERTEX
  8
0
  5
B15E
 10
356.282
 20
102.733
 30
0.000000
  70
    32
  0
VERTEX
  8
0
  5
B15F
 10
356.255
 20
102.798
 30
0.000000
  70
    32
  0
VERTEX
  8
0
  5
B160
 10
356.230
 20
102.865
 30
0.000000
  70
    32
  0
VERTEX
  8
0
  5
B161
 10
356.207
 20
102.931
 30
0.000000
  70
    32
  0
VERTEX
  8
0
  5
B162
 10
356.185
 20
102.997
 30
0.000000
  70
    32
  0
VERTEX
  8
0
  5
B163
 10
356.165
 20
103.064
 30
0.000000
  70
    32
  0
VERTEX
  8
0
  5
B164
 10
356.147
 20
103.131
 30
0.000000
  70
    32
  0
VERTEX
  8
0
  5
B165
 10
356.131
 20
103.199
 30
0.000000
  70
    32
  0
VERTEX
  8
0
  5
B166
 10
356.116
 20
103.266
 30
0.000000
  70
    32
  0
VERTEX
  8
0
  5
B167
 10
356.103
 20
103.334
 30
0.000000
  70
    32
  0
VERTEX
  8
0
  5
B168
 10
356.092
 20
103.401
 30
0.000000
  70
    32
  0
VERTEX
  8
0
  5
B169
 10
356.082
 20
103.469
 30
0.000000
  70
    32
  0
VERTEX
  8
0
  5
B16A
 10
356.074
 20
103.537
 30
0.000000
  70
    32
  0
VERTEX
  8
0
  5
B16B
 10
356.068
 20
103.605
 30
0.000000
  70
    32
  0
VERTEX
  8
0
  5
B16C
 10
356.064
 20
103.673
 30
0.000000
  70
    32
  0
VERTEX
  8
0
  5
B16D
 10
356.061
 20
103.742
 30
0.000000
  70
    32
  0
VERTEX
  8
0
  5
B16E
 10
356.061
 20
103.810
 30
0.000000
  70
    32
  0
SEQEND
  8
0
  5
B16F
  0
LINE
  5
8438
  8
0
 10
319.06052453743911
 20
595.80973820232293
 30
0.0
 11
319.06052453744587
 21
103.8097382023229
 31
0.0
  0
LINE
  5
8439
  8
0
 10
329.06052453743899
 20
598.1795061398384
 30
0.0
 11
329.06052453744951
 21
101.5417890098893
 31
0.0
  0
LINE
  5
843A
  8
0
 10
336.06052453743911
 20
599.75379139105598
 30
0.0
 11
336.06052453744951
 21
99.864525403160314
 31
0.0
  0
POLYLINE
  5
843B
  8
0
 10
330.85834676696408
 20
598.66488575525852
 30
0.0
 66
     1
 70
     8
  0
VERTEX
  8
0
  5
B170
 10
330.858
 20
598.665
 30
0.000000
  70
    32
  0
VERTEX
  8
0
  5
B171
 10
330.938
 20
598.716
 30
0.000000
  70
    32
  0
VERTEX
  8
0
  5
B172
 10
331.018
 20
598.766
 30
0.000000
  70
    32
  0
VERTEX
  8
0
  5
B173
 10
331.100
 20
598.815
 30
0.000000
  70
    32
  0
VERTEX
  8
0
  5
B174
 10
331.183
 20
598.862
 30
0.000000
  70
    32
  0
VERTEX
  8
0
  5
B175
 10
331.268
 20
598.909
 30
0.000000
  70
    32
  0
VERTEX
  8
0
  5
B176
 10
331.354
 20
598.955
 30
0.000000
  70
    32
  0
VERTEX
  8
0
  5
B177
 10
331.441
 20
599.000
 30
0.000000
  70
    32
  0
VERTEX
  8
0
  5
B178
 10
331.529
 20
599.044
 30
0.000000
  70
    32
  0
VERTEX
  8
0
  5
B179
 10
331.619
 20
599.086
 30
0.000000
  70
    32
  0
VERTEX
  8
0
  5
B17A
 10
331.710
 20
599.128
 30
0.000000
  70
    32
  0
VERTEX
  8
0
  5
B17B
 10
331.801
 20
599.168
 30
0.000000
  70
    32
  0
VERTEX
  8
0
  5
B17C
 10
331.894
 20
599.207
 30
0.000000
  70
    32
  0
VERTEX
  8
0
  5
B17D
 10
331.988
 20
599.246
 30
0.000000
  70
    32
  0
VERTEX
  8
0
  5
B17E
 10
332.083
 20
599.283
 30
0.000000
  70
    32
  0
VERTEX
  8
0
  5
B17F
 10
332.179
 20
599.318
 30
0.000000
  70
    32
  0
VERTEX
  8
0
  5
B180
 10
332.276
 20
599.353
 30
0.000000
  70
    32
  0
VERTEX
  8
0
  5
B181
 10
332.374
 20
599.386
 30
0.000000
  70
    32
  0
VERTEX
  8
0
  5
B182
 10
332.473
 20
599.419
 30
0.000000
  70
    32
  0
VERTEX
  8
0
  5
B183
 10
332.573
 20
599.450
 30
0.000000
  70
    32
  0
VERTEX
  8
0
  5
B184
 10
332.673
 20
599.479
 30
0.000000
  70
    32
  0
VERTEX
  8
0
  5
B185
 10
332.774
 20
599.508
 30
0.000000
  70
    32
  0
VERTEX
  8
0
  5
B186
 10
332.876
 20
599.535
 30
0.000000
  70
    32
  0
VERTEX
  8
0
  5
B187
 10
332.979
 20
599.561
 30
0.000000
  70
    32
  0
VERTEX
  8
0
  5
B188
 10
333.083
 20
599.586
 30
0.000000
  70
    32
  0
VERTEX
  8
0
  5
B189
 10
333.187
 20
599.610
 30
0.000000
  70
    32
  0
VERTEX
  8
0
  5
B18A
 10
333.292
 20
599.632
 30
0.000000
  70
    32
  0
VERTEX
  8
0
  5
B18B
 10
333.397
 20
599.653
 30
0.000000
  70
    32
  0
VERTEX
  8
0
  5
B18C
 10
333.503
 20
599.673
 30
0.000000
  70
    32
  0
VERTEX
  8
0
  5
B18D
 10
333.610
 20
599.691
 30
0.000000
  70
    32
  0
VERTEX
  8
0
  5
B18E
 10
333.717
 20
599.708
 30
0.000000
  70
    32
  0
VERTEX
  8
0
  5
B18F
 10
333.824
 20
599.724
 30
0.000000
  70
    32
  0
VERTEX
  8
0
  5
B190
 10
333.932
 20
599.738
 30
0.000000
  70
    32
  0
VERTEX
  8
0
  5
B191
 10
334.040
 20
599.751
 30
0.000000
  70
    32
  0
VERTEX
  8
0
  5
B192
 10
334.149
 20
599.763
 30
0.000000
  70
    32
  0
VERTEX
  8
0
  5
B193
 10
334.258
 20
599.774
 30
0.000000
  70
    32
  0
VERTEX
  8
0
  5
B194
 10
334.367
 20
599.783
 30
0.000000
  70
    32
  0
VERTEX
  8
0
  5
B195
 10
334.476
 20
599.791
 30
0.000000
  70
    32
  0
VERTEX
  8
0
  5
B196
 10
334.586
 20
599.797
 30
0.000000
  70
    32
  0
VERTEX
  8
0
  5
B197
 10
334.695
 20
599.802
 30
0.000000
  70
    32
  0
VERTEX
  8
0
  5
B198
 10
334.805
 20
599.806
 30
0.000000
  70
    32
  0
VERTEX
  8
0
  5
B199
 10
334.915
 20
599.809
 30
0.000000
  70
    32
  0
VERTEX
  8
0
  5
B19A
 10
335.025
 20
599.810
 30
0.000000
  70
    32
  0
VERTEX
  8
0
  5
B19B
 10
335.135
 20
599.809
 30
0.000000
  70
    32
  0
VERTEX
  8
0
  5
B19C
 10
335.245
 20
599.808
 30
0.000000
  70
    32
  0
VERTEX
  8
0
  5
B19D
 10
335.355
 20
599.805
 30
0.000000
  70
    32
  0
VERTEX
  8
0
  5
B19E
 10
335.465
 20
599.801
 30
0.000000
  70
    32
  0
VERTEX
  8
0
  5
B19F
 10
335.575
 20
599.795
 30
0.000000
  70
    32
  0
VERTEX
  8
0
  5
B1A0
 10
335.684
 20
599.788
 30
0.000000
  70
    32
  0
VERTEX
  8
0
  5
B1A1
 10
335.793
 20
599.780
 30
0.000000
  70
    32
  0
VERTEX
  8
0
  5
B1A2
 10
335.902
 20
599.770
 30
0.000000
  70
    32
  0
VERTEX
  8
0
  5
B1A3
 10
336.011
 20
599.759
 30
0.000000
  70
    32
  0
VERTEX
  8
0
  5
B1A4
 10
336.120
 20
599.747
 30
0.000000
  70
    32
  0
VERTEX
  8
0
  5
B1A5
 10
336.228
 20
599.733
 30
0.000000
  70
    32
  0
VERTEX
  8
0
  5
B1A6
 10
336.335
 20
599.718
 30
0.000000
  70
    32
  0
VERTEX
  8
0
  5
B1A7
 10
336.443
 20
599.702
 30
0.000000
  70
    32
  0
VERTEX
  8
0
  5
B1A8
 10
336.549
 20
599.685
 30
0.000000
  70
    32
  0
VERTEX
  8
0
  5
B1A9
 10
336.656
 20
599.666
 30
0.000000
  70
    32
  0
VERTEX
  8
0
  5
B1AA
 10
336.762
 20
599.646
 30
0.000000
  70
    32
  0
VERTEX
  8
0
  5
B1AB
 10
336.867
 20
599.624
 30
0.000000
  70
    32
  0
VERTEX
  8
0
  5
B1AC
 10
336.971
 20
599.601
 30
0.000000
  70
    32
  0
VERTEX
  8
0
  5
B1AD
 10
337.075
 20
599.577
 30
0.000000
  70
    32
  0
VERTEX
  8
0
  5
B1AE
 10
337.179
 20
599.552
 30
0.000000
  70
    32
  0
VERTEX
  8
0
  5
B1AF
 10
337.281
 20
599.526
 30
0.000000
  70
    32
  0
VERTEX
  8
0
  5
B1B0
 10
337.383
 20
599.498
 30
0.000000
  70
    32
  0
VERTEX
  8
0
  5
B1B1
 10
337.484
 20
599.469
 30
0.000000
  70
    32
  0
VERTEX
  8
0
  5
B1B2
 10
337.584
 20
599.439
 30
0.000000
  70
    32
  0
VERTEX
  8
0
  5
B1B3
 10
337.684
 20
599.407
 30
0.000000
  70
    32
  0
VERTEX
  8
0
  5
B1B4
 10
337.782
 20
599.375
 30
0.000000
  70
    32
  0
VERTEX
  8
0
  5
B1B5
 10
337.880
 20
599.341
 30
0.000000
  70
    32
  0
VERTEX
  8
0
  5
B1B6
 10
337.976
 20
599.306
 30
0.000000
  70
    32
  0
VERTEX
  8
0
  5
B1B7
 10
338.072
 20
599.269
 30
0.000000
  70
    32
  0
VERTEX
  8
0
  5
B1B8
 10
338.166
 20
599.232
 30
0.000000
  70
    32
  0
VERTEX
  8
0
  5
B1B9
 10
338.260
 20
599.194
 30
0.000000
  70
    32
  0
VERTEX
  8
0
  5
B1BA
 10
338.353
 20
599.154
 30
0.000000
  70
    32
  0
VERTEX
  8
0
  5
B1BB
 10
338.444
 20
599.113
 30
0.000000
  70
    32
  0
VERTEX
  8
0
  5
B1BC
 10
338.534
 20
599.071
 30
0.000000
  70
    32
  0
VERTEX
  8
0
  5
B1BD
 10
338.623
 20
599.028
 30
0.000000
  70
    32
  0
VERTEX
  8
0
  5
B1BE
 10
338.711
 20
598.984
 30
0.000000
  70
    32
  0
VERTEX
  8
0
  5
B1BF
 10
338.798
 20
598.939
 30
0.000000
  70
    32
  0
VERTEX
  8
0
  5
B1C0
 10
338.883
 20
598.893
 30
0.000000
  70
    32
  0
VERTEX
  8
0
  5
B1C1
 10
338.968
 20
598.845
 30
0.000000
  70
    32
  0
VERTEX
  8
0
  5
B1C2
 10
339.050
 20
598.797
 30
0.000000
  70
    32
  0
VERTEX
  8
0
  5
B1C3
 10
339.132
 20
598.748
 30
0.000000
  70
    32
  0
VERTEX
  8
0
  5
B1C4
 10
339.212
 20
598.698
 30
0.000000
  70
    32
  0
VERTEX
  8
0
  5
B1C5
 10
339.291
 20
598.646
 30
0.000000
  70
    32
  0
VERTEX
  8
0
  5
B1C6
 10
339.368
 20
598.594
 30
0.000000
  70
    32
  0
VERTEX
  8
0
  5
B1C7
 10
339.444
 20
598.541
 30
0.000000
  70
    32
  0
VERTEX
  8
0
  5
B1C8
 10
339.518
 20
598.487
 30
0.000000
  70
    32
  0
VERTEX
  8
0
  5
B1C9
 10
339.591
 20
598.432
 30
0.000000
  70
    32
  0
VERTEX
  8
0
  5
B1CA
 10
339.662
 20
598.376
 30
0.000000
  70
    32
  0
VERTEX
  8
0
  5
B1CB
 10
339.732
 20
598.320
 30
0.000000
  70
    32
  0
VERTEX
  8
0
  5
B1CC
 10
339.800
 20
598.262
 30
0.000000
  70
    32
  0
VERTEX
  8
0
  5
B1CD
 10
339.867
 20
598.204
 30
0.000000
  70
    32
  0
VERTEX
  8
0
  5
B1CE
 10
339.932
 20
598.145
 30
0.000000
  70
    32
  0
VERTEX
  8
0
  5
B1CF
 10
339.996
 20
598.085
 30
0.000000
  70
    32
  0
VERTEX
  8
0
  5
B1D0
 10
340.057
 20
598.024
 30
0.000000
  70
    32
  0
VERTEX
  8
0
  5
B1D1
 10
340.117
 20
597.963
 30
0.000000
  70
    32
  0
VERTEX
  8
0
  5
B1D2
 10
340.176
 20
597.901
 30
0.000000
  70
    32
  0
VERTEX
  8
0
  5
B1D3
 10
340.232
 20
597.838
 30
0.000000
  70
    32
  0
VERTEX
  8
0
  5
B1D4
 10
340.287
 20
597.774
 30
0.000000
  70
    32
  0
VERTEX
  8
0
  5
B1D5
 10
340.340
 20
597.710
 30
0.000000
  70
    32
  0
VERTEX
  8
0
  5
B1D6
 10
340.392
 20
597.645
 30
0.000000
  70
    32
  0
VERTEX
  8
0
  5
B1D7
 10
340.441
 20
597.580
 30
0.000000
  70
    32
  0
VERTEX
  8
0
  5
B1D8
 10
340.489
 20
597.514
 30
0.000000
  70
    32
  0
VERTEX
  8
0
  5
B1D9
 10
340.535
 20
597.447
 30
0.000000
  70
    32
  0
VERTEX
  8
0
  5
B1DA
 10
340.579
 20
597.380
 30
0.000000
  70
    32
  0
VERTEX
  8
0
  5
B1DB
 10
340.621
 20
597.312
 30
0.000000
  70
    32
  0
VERTEX
  8
0
  5
B1DC
 10
340.662
 20
597.244
 30
0.000000
  70
    32
  0
VERTEX
  8
0
  5
B1DD
 10
340.700
 20
597.175
 30
0.000000
  70
    32
  0
VERTEX
  8
0
  5
B1DE
 10
340.737
 20
597.106
 30
0.000000
  70
    32
  0
VERTEX
  8
0
  5
B1DF
 10
340.771
 20
597.036
 30
0.000000
  70
    32
  0
VERTEX
  8
0
  5
B1E0
 10
340.804
 20
596.966
 30
0.000000
  70
    32
  0
VERTEX
  8
0
  5
B1E1
 10
340.835
 20
596.896
 30
0.000000
  70
    32
  0
VERTEX
  8
0
  5
B1E2
 10
340.864
 20
596.825
 30
0.000000
  70
    32
  0
VERTEX
  8
0
  5
B1E3
 10
340.891
 20
596.754
 30
0.000000
  70
    32
  0
VERTEX
  8
0
  5
B1E4
 10
340.916
 20
596.683
 30
0.000000
  70
    32
  0
VERTEX
  8
0
  5
B1E5
 10
340.939
 20
596.611
 30
0.000000
  70
    32
  0
VERTEX
  8
0
  5
B1E6
 10
340.960
 20
596.539
 30
0.000000
  70
    32
  0
VERTEX
  8
0
  5
B1E7
 10
340.979
 20
596.467
 30
0.000000
  70
    32
  0
VERTEX
  8
0
  5
B1E8
 10
340.996
 20
596.394
 30
0.000000
  70
    32
  0
VERTEX
  8
0
  5
B1E9
 10
341.011
 20
596.322
 30
0.000000
  70
    32
  0
VERTEX
  8
0
  5
B1EA
 10
341.024
 20
596.249
 30
0.000000
  70
    32
  0
VERTEX
  8
0
  5
B1EB
 10
341.035
 20
596.176
 30
0.000000
  70
    32
  0
VERTEX
  8
0
  5
B1EC
 10
341.044
 20
596.103
 30
0.000000
  70
    32
  0
VERTEX
  8
0
  5
B1ED
 10
341.051
 20
596.030
 30
0.000000
  70
    32
  0
VERTEX
  8
0
  5
B1EE
 10
341.056
 20
595.956
 30
0.000000
  70
    32
  0
VERTEX
  8
0
  5
B1EF
 10
341.060
 20
595.883
 30
0.000000
  70
    32
  0
VERTEX
  8
0
  5
B1F0
 10
341.061
 20
595.810
 30
0.000000
  70
    32
  0
SEQEND
  8
0
  5
B1F1
  0
POLYLINE
  5
843C
  8
0
 10
319.06052453743899
 20
595.80973820232282
 30
0.0
 66
     1
 70
     8
  0
VERTEX
  8
0
  5
B1F2
 10
319.061
 20
595.810
 30
0.000000
  70
    32
  0
VERTEX
  8
0
  5
B1F3
 10
319.061
 20
595.882
 30
0.000000
  70
    32
  0
VERTEX
  8
0
  5
B1F4
 10
319.064
 20
595.954
 30
0.000000
  70
    32
  0
VERTEX
  8
0
  5
B1F5
 10
319.068
 20
596.026
 30
0.000000
  70
    32
  0
VERTEX
  8
0
  5
B1F6
 10
319.074
 20
596.099
 30
0.000000
  70
    32
  0
VERTEX
  8
0
  5
B1F7
 10
319.081
 20
596.171
 30
0.000000
  70
    32
  0
VERTEX
  8
0
  5
B1F8
 10
319.090
 20
596.243
 30
0.000000
  70
    32
  0
VERTEX
  8
0
  5
B1F9
 10
319.100
 20
596.314
 30
0.000000
  70
    32
  0
VERTEX
  8
0
  5
B1FA
 10
319.113
 20
596.386
 30
0.000000
  70
    32
  0
VERTEX
  8
0
  5
B1FB
 10
319.127
 20
596.457
 30
0.000000
  70
    32
  0
VERTEX
  8
0
  5
B1FC
 10
319.142
 20
596.529
 30
0.000000
  70
    32
  0
VERTEX
  8
0
  5
B1FD
 10
319.159
 20
596.600
 30
0.000000
  70
    32
  0
VERTEX
  8
0
  5
B1FE
 10
319.178
 20
596.670
 30
0.000000
  70
    32
  0
VERTEX
  8
0
  5
B1FF
 10
319.198
 20
596.741
 30
0.000000
  70
    32
  0
VERTEX
  8
0
  5
B200
 10
319.220
 20
596.811
 30
0.000000
  70
    32
  0
VERTEX
  8
0
  5
B201
 10
319.243
 20
596.881
 30
0.000000
  70
    32
  0
VERTEX
  8
0
  5
B202
 10
319.268
 20
596.950
 30
0.000000
  70
    32
  0
VERTEX
  8
0
  5
B203
 10
319.295
 20
597.019
 30
0.000000
  70
    32
  0
VERTEX
  8
0
  5
B204
 10
319.323
 20
597.088
 30
0.000000
  70
    32
  0
VERTEX
  8
0
  5
B205
 10
319.352
 20
597.156
 30
0.000000
  70
    32
  0
VERTEX
  8
0
  5
B206
 10
319.384
 20
597.224
 30
0.000000
  70
    32
  0
VERTEX
  8
0
  5
B207
 10
319.416
 20
597.292
 30
0.000000
  70
    32
  0
VERTEX
  8
0
  5
B208
 10
319.451
 20
597.359
 30
0.000000
  70
    32
  0
VERTEX
  8
0
  5
B209
 10
319.486
 20
597.425
 30
0.000000
  70
    32
  0
VERTEX
  8
0
  5
B20A
 10
319.523
 20
597.491
 30
0.000000
  70
    32
  0
VERTEX
  8
0
  5
B20B
 10
319.562
 20
597.556
 30
0.000000
  70
    32
  0
VERTEX
  8
0
  5
B20C
 10
319.602
 20
597.621
 30
0.000000
  70
    32
  0
VERTEX
  8
0
  5
B20D
 10
319.644
 20
597.685
 30
0.000000
  70
    32
  0
VERTEX
  8
0
  5
B20E
 10
319.687
 20
597.749
 30
0.000000
  70
    32
  0
VERTEX
  8
0
  5
B20F
 10
319.732
 20
597.811
 30
0.000000
  70
    32
  0
VERTEX
  8
0
  5
B210
 10
319.778
 20
597.874
 30
0.000000
  70
    32
  0
VERTEX
  8
0
  5
B211
 10
319.825
 20
597.935
 30
0.000000
  70
    32
  0
VERTEX
  8
0
  5
B212
 10
319.874
 20
597.996
 30
0.000000
  70
    32
  0
VERTEX
  8
0
  5
B213
 10
319.924
 20
598.056
 30
0.000000
  70
    32
  0
VERTEX
  8
0
  5
B214
 10
319.975
 20
598.116
 30
0.000000
  70
    32
  0
VERTEX
  8
0
  5
B215
 10
320.028
 20
598.174
 30
0.000000
  70
    32
  0
VERTEX
  8
0
  5
B216
 10
320.082
 20
598.232
 30
0.000000
  70
    32
  0
VERTEX
  8
0
  5
B217
 10
320.137
 20
598.289
 30
0.000000
  70
    32
  0
VERTEX
  8
0
  5
B218
 10
320.194
 20
598.346
 30
0.000000
  70
    32
  0
VERTEX
  8
0
  5
B219
 10
320.252
 20
598.401
 30
0.000000
  70
    32
  0
VERTEX
  8
0
  5
B21A
 10
320.311
 20
598.456
 30
0.000000
  70
    32
  0
VERTEX
  8
0
  5
B21B
 10
320.371
 20
598.510
 30
0.000000
  70
    32
  0
VERTEX
  8
0
  5
B21C
 10
320.433
 20
598.563
 30
0.000000
  70
    32
  0
VERTEX
  8
0
  5
B21D
 10
320.496
 20
598.615
 30
0.000000
  70
    32
  0
VERTEX
  8
0
  5
B21E
 10
320.560
 20
598.666
 30
0.000000
  70
    32
  0
VERTEX
  8
0
  5
B21F
 10
320.625
 20
598.716
 30
0.000000
  70
    32
  0
VERTEX
  8
0
  5
B220
 10
320.691
 20
598.765
 30
0.000000
  70
    32
  0
VERTEX
  8
0
  5
B221
 10
320.758
 20
598.813
 30
0.000000
  70
    32
  0
VERTEX
  8
0
  5
B222
 10
320.827
 20
598.860
 30
0.000000
  70
    32
  0
VERTEX
  8
0
  5
B223
 10
320.896
 20
598.907
 30
0.000000
  70
    32
  0
VERTEX
  8
0
  5
B224
 10
320.967
 20
598.952
 30
0.000000
  70
    32
  0
VERTEX
  8
0
  5
B225
 10
321.038
 20
598.996
 30
0.000000
  70
    32
  0
VERTEX
  8
0
  5
B226
 10
321.111
 20
599.039
 30
0.000000
  70
    32
  0
VERTEX
  8
0
  5
B227
 10
321.184
 20
599.081
 30
0.000000
  70
    32
  0
VERTEX
  8
0
  5
B228
 10
321.258
 20
599.123
 30
0.000000
  70
    32
  0
VERTEX
  8
0
  5
B229
 10
321.334
 20
599.163
 30
0.000000
  70
    32
  0
VERTEX
  8
0
  5
B22A
 10
321.410
 20
599.201
 30
0.000000
  70
    32
  0
VERTEX
  8
0
  5
B22B
 10
321.487
 20
599.239
 30
0.000000
  70
    32
  0
VERTEX
  8
0
  5
B22C
 10
321.565
 20
599.276
 30
0.000000
  70
    32
  0
VERTEX
  8
0
  5
B22D
 10
321.643
 20
599.311
 30
0.000000
  70
    32
  0
VERTEX
  8
0
  5
B22E
 10
321.723
 20
599.346
 30
0.000000
  70
    32
  0
VERTEX
  8
0
  5
B22F
 10
321.803
 20
599.379
 30
0.000000
  70
    32
  0
VERTEX
  8
0
  5
B230
 10
321.884
 20
599.411
 30
0.000000
  70
    32
  0
VERTEX
  8
0
  5
B231
 10
321.966
 20
599.442
 30
0.000000
  70
    32
  0
VERTEX
  8
0
  5
B232
 10
322.048
 20
599.472
 30
0.000000
  70
    32
  0
VERTEX
  8
0
  5
B233
 10
322.131
 20
599.500
 30
0.000000
  70
    32
  0
VERTEX
  8
0
  5
B234
 10
322.215
 20
599.527
 30
0.000000
  70
    32
  0
VERTEX
  8
0
  5
B235
 10
322.299
 20
599.553
 30
0.000000
  70
    32
  0
VERTEX
  8
0
  5
B236
 10
322.384
 20
599.578
 30
0.000000
  70
    32
  0
VERTEX
  8
0
  5
B237
 10
322.470
 20
599.602
 30
0.000000
  70
    32
  0
VERTEX
  8
0
  5
B238
 10
322.555
 20
599.624
 30
0.000000
  70
    32
  0
VERTEX
  8
0
  5
B239
 10
322.642
 20
599.645
 30
0.000000
  70
    32
  0
VERTEX
  8
0
  5
B23A
 10
322.729
 20
599.665
 30
0.000000
  70
    32
  0
VERTEX
  8
0
  5
B23B
 10
322.816
 20
599.684
 30
0.000000
  70
    32
  0
VERTEX
  8
0
  5
B23C
 10
322.904
 20
599.701
 30
0.000000
  70
    32
  0
VERTEX
  8
0
  5
B23D
 10
322.992
 20
599.717
 30
0.000000
  70
    32
  0
VERTEX
  8
0
  5
B23E
 10
323.080
 20
599.732
 30
0.000000
  70
    32
  0
VERTEX
  8
0
  5
B23F
 10
323.169
 20
599.746
 30
0.000000
  70
    32
  0
VERTEX
  8
0
  5
B240
 10
323.258
 20
599.758
 30
0.000000
  70
    32
  0
VERTEX
  8
0
  5
B241
 10
323.347
 20
599.769
 30
0.000000
  70
    32
  0
VERTEX
  8
0
  5
B242
 10
323.437
 20
599.779
 30
0.000000
  70
    32
  0
VERTEX
  8
0
  5
B243
 10
323.527
 20
599.787
 30
0.000000
  70
    32
  0
VERTEX
  8
0
  5
B244
 10
323.617
 20
599.794
 30
0.000000
  70
    32
  0
VERTEX
  8
0
  5
B245
 10
323.707
 20
599.800
 30
0.000000
  70
    32
  0
VERTEX
  8
0
  5
B246
 10
323.797
 20
599.804
 30
0.000000
  70
    32
  0
VERTEX
  8
0
  5
B247
 10
323.887
 20
599.807
 30
0.000000
  70
    32
  0
VERTEX
  8
0
  5
B248
 10
323.978
 20
599.809
 30
0.000000
  70
    32
  0
VERTEX
  8
0
  5
B249
 10
324.068
 20
599.810
 30
0.000000
  70
    32
  0
VERTEX
  8
0
  5
B24A
 10
324.158
 20
599.809
 30
0.000000
  70
    32
  0
VERTEX
  8
0
  5
B24B
 10
324.249
 20
599.807
 30
0.000000
  70
    32
  0
VERTEX
  8
0
  5
B24C
 10
324.339
 20
599.804
 30
0.000000
  70
    32
  0
VERTEX
  8
0
  5
B24D
 10
324.429
 20
599.799
 30
0.000000
  70
    32
  0
VERTEX
  8
0
  5
B24E
 10
324.519
 20
599.793
 30
0.000000
  70
    32
  0
VERTEX
  8
0
  5
B24F
 10
324.609
 20
599.786
 30
0.000000
  70
    32
  0
VERTEX
  8
0
  5
B250
 10
324.699
 20
599.777
 30
0.000000
  70
    32
  0
VERTEX
  8
0
  5
B251
 10
324.788
 20
599.767
 30
0.000000
  70
    32
  0
VERTEX
  8
0
  5
B252
 10
324.877
 20
599.756
 30
0.000000
  70
    32
  0
VERTEX
  8
0
  5
B253
 10
324.966
 20
599.744
 30
0.000000
  70
    32
  0
VERTEX
  8
0
  5
B254
 10
325.055
 20
599.730
 30
0.000000
  70
    32
  0
VERTEX
  8
0
  5
B255
 10
325.144
 20
599.715
 30
0.000000
  70
    32
  0
VERTEX
  8
0
  5
B256
 10
325.232
 20
599.698
 30
0.000000
  70
    32
  0
VERTEX
  8
0
  5
B257
 10
325.319
 20
599.681
 30
0.000000
  70
    32
  0
VERTEX
  8
0
  5
B258
 10
325.406
 20
599.662
 30
0.000000
  70
    32
  0
VERTEX
  8
0
  5
B259
 10
325.493
 20
599.642
 30
0.000000
  70
    32
  0
VERTEX
  8
0
  5
B25A
 10
325.580
 20
599.621
 30
0.000000
  70
    32
  0
VERTEX
  8
0
  5
B25B
 10
325.665
 20
599.598
 30
0.000000
  70
    32
  0
VERTEX
  8
0
  5
B25C
 10
325.751
 20
599.574
 30
0.000000
  70
    32
  0
VERTEX
  8
0
  5
B25D
 10
325.836
 20
599.549
 30
0.000000
  70
    32
  0
VERTEX
  8
0
  5
B25E
 10
325.920
 20
599.523
 30
0.000000
  70
    32
  0
VERTEX
  8
0
  5
B25F
 10
326.003
 20
599.495
 30
0.000000
  70
    32
  0
VERTEX
  8
0
  5
B260
 10
326.086
 20
599.467
 30
0.000000
  70
    32
  0
VERTEX
  8
0
  5
B261
 10
326.168
 20
599.437
 30
0.000000
  70
    32
  0
VERTEX
  8
0
  5
B262
 10
326.250
 20
599.406
 30
0.000000
  70
    32
  0
VERTEX
  8
0
  5
B263
 10
326.331
 20
599.374
 30
0.000000
  70
    32
  0
VERTEX
  8
0
  5
B264
 10
326.411
 20
599.340
 30
0.000000
  70
    32
  0
VERTEX
  8
0
  5
B265
 10
326.490
 20
599.306
 30
0.000000
  70
    32
  0
VERTEX
  8
0
  5
B266
 10
326.569
 20
599.270
 30
0.000000
  70
    32
  0
VERTEX
  8
0
  5
B267
 10
326.647
 20
599.233
 30
0.000000
  70
    32
  0
VERTEX
  8
0
  5
B268
 10
326.724
 20
599.195
 30
0.000000
  70
    32
  0
VERTEX
  8
0
  5
B269
 10
326.800
 20
599.156
 30
0.000000
  70
    32
  0
VERTEX
  8
0
  5
B26A
 10
326.875
 20
599.116
 30
0.000000
  70
    32
  0
VERTEX
  8
0
  5
B26B
 10
326.949
 20
599.075
 30
0.000000
  70
    32
  0
VERTEX
  8
0
  5
B26C
 10
327.022
 20
599.032
 30
0.000000
  70
    32
  0
VERTEX
  8
0
  5
B26D
 10
327.095
 20
598.989
 30
0.000000
  70
    32
  0
VERTEX
  8
0
  5
B26E
 10
327.166
 20
598.945
 30
0.000000
  70
    32
  0
VERTEX
  8
0
  5
B26F
 10
327.236
 20
598.899
 30
0.000000
  70
    32
  0
VERTEX
  8
0
  5
B270
 10
327.306
 20
598.853
 30
0.000000
  70
    32
  0
VERTEX
  8
0
  5
B271
 10
327.374
 20
598.805
 30
0.000000
  70
    32
  0
VERTEX
  8
0
  5
B272
 10
327.441
 20
598.757
 30
0.000000
  70
    32
  0
SEQEND
  8
0
  5
B273
  0
ARC
  5
843D
  8
0
 10
329.2161014194121
 20
601.17546939625436
 30
0.0
 40
3.0
 50
233.71999165092009
 51
303.1898592096826
  0
POLYLINE
  5
843E
  8
0
 10
330.8583467669709
 20
100.95459064938642
 30
0.0
 66
     1
 70
     8
  0
VERTEX
  8
0
  5
B274
 10
330.858
 20
100.955
 30
0.000000
  70
    32
  0
VERTEX
  8
0
  5
B275
 10
330.938
 20
100.904
 30
0.000000
  70
    32
  0
VERTEX
  8
0
  5
B276
 10
331.018
 20
100.854
 30
0.000000
  70
    32
  0
VERTEX
  8
0
  5
B277
 10
331.100
 20
100.805
 30
0.000000
  70
    32
  0
VERTEX
  8
0
  5
B278
 10
331.183
 20
100.757
 30
0.000000
  70
    32
  0
VERTEX
  8
0
  5
B279
 10
331.268
 20
100.710
 30
0.000000
  70
    32
  0
VERTEX
  8
0
  5
B27A
 10
331.354
 20
100.664
 30
0.000000
  70
    32
  0
VERTEX
  8
0
  5
B27B
 10
331.441
 20
100.620
 30
0.000000
  70
    32
  0
VERTEX
  8
0
  5
B27C
 10
331.529
 20
100.576
 30
0.000000
  70
    32
  0
VERTEX
  8
0
  5
B27D
 10
331.619
 20
100.533
 30
0.000000
  70
    32
  0
VERTEX
  8
0
  5
B27E
 10
331.710
 20
100.492
 30
0.000000
  70
    32
  0
VERTEX
  8
0
  5
B27F
 10
331.801
 20
100.451
 30
0.000000
  70
    32
  0
VERTEX
  8
0
  5
B280
 10
331.894
 20
100.412
 30
0.000000
  70
    32
  0
VERTEX
  8
0
  5
B281
 10
331.988
 20
100.374
 30
0.000000
  70
    32
  0
VERTEX
  8
0
  5
B282
 10
332.083
 20
100.337
 30
0.000000
  70
    32
  0
VERTEX
  8
0
  5
B283
 10
332.179
 20
100.301
 30
0.000000
  70
    32
  0
VERTEX
  8
0
  5
B284
 10
332.276
 20
100.267
 30
0.000000
  70
    32
  0
VERTEX
  8
0
  5
B285
 10
332.374
 20
100.233
 30
0.000000
  70
    32
  0
VERTEX
  8
0
  5
B286
 10
332.473
 20
100.201
 30
0.000000
  70
    32
  0
VERTEX
  8
0
  5
B287
 10
332.573
 20
100.170
 30
0.000000
  70
    32
  0
VERTEX
  8
0
  5
B288
 10
332.673
 20
100.140
 30
0.000000
  70
    32
  0
VERTEX
  8
0
  5
B289
 10
332.774
 20
100.111
 30
0.000000
  70
    32
  0
VERTEX
  8
0
  5
B28A
 10
332.876
 20
100.084
 30
0.000000
  70
    32
  0
VERTEX
  8
0
  5
B28B
 10
332.979
 20
100.058
 30
0.000000
  70
    32
  0
VERTEX
  8
0
  5
B28C
 10
333.083
 20
100.033
 30
0.000000
  70
    32
  0
VERTEX
  8
0
  5
B28D
 10
333.187
 20
100.010
 30
0.000000
  70
    32
  0
VERTEX
  8
0
  5
B28E
 10
333.292
 20
99.9875
 30
0.000000
  70
    32
  0
VERTEX
  8
0
  5
B28F
 10
333.397
 20
99.9665
 30
0.000000
  70
    32
  0
VERTEX
  8
0
  5
B290
 10
333.503
 20
99.9468
 30
0.000000
  70
    32
  0
VERTEX
  8
0
  5
B291
 10
333.610
 20
99.9284
 30
0.000000
  70
    32
  0
VERTEX
  8
0
  5
B292
 10
333.717
 20
99.9114
 30
0.000000
  70
    32
  0
VERTEX
  8
0
  5
B293
 10
333.824
 20
99.8956
 30
0.000000
  70
    32
  0
VERTEX
  8
0
  5
B294
 10
333.932
 20
99.8811
 30
0.000000
  70
    32
  0
VERTEX
  8
0
  5
B295
 10
334.040
 20
99.8680
 30
0.000000
  70
    32
  0
VERTEX
  8
0
  5
B296
 10
334.149
 20
99.8562
 30
0.000000
  70
    32
  0
VERTEX
  8
0
  5
B297
 10
334.258
 20
99.8457
 30
0.000000
  70
    32
  0
VERTEX
  8
0
  5
B298
 10
334.367
 20
99.8366
 30
0.000000
  70
    32
  0
VERTEX
  8
0
  5
B299
 10
334.476
 20
99.8288
 30
0.000000
  70
    32
  0
VERTEX
  8
0
  5
B29A
 10
334.586
 20
99.8223
 30
0.000000
  70
    32
  0
VERTEX
  8
0
  5
B29B
 10
334.695
 20
99.8172
 30
0.000000
  70
    32
  0
VERTEX
  8
0
  5
B29C
 10
334.805
 20
99.8134
 30
0.000000
  70
    32
  0
VERTEX
  8
0
  5
B29D
 10
334.915
 20
99.8109
 30
0.000000
  70
    32
  0
VERTEX
  8
0
  5
B29E
 10
335.025
 20
99.8098
 30
0.000000
  70
    32
  0
VERTEX
  8
0
  5
B29F
 10
335.135
 20
99.8100
 30
0.000000
  70
    32
  0
VERTEX
  8
0
  5
B2A0
 10
335.245
 20
99.8116
 30
0.000000
  70
    32
  0
VERTEX
  8
0
  5
B2A1
 10
335.355
 20
99.8146
 30
0.000000
  70
    32
  0
VERTEX
  8
0
  5
B2A2
 10
335.465
 20
99.8188
 30
0.000000
  70
    32
  0
VERTEX
  8
0
  5
B2A3
 10
335.575
 20
99.8244
 30
0.000000
  70
    32
  0
VERTEX
  8
0
  5
B2A4
 10
335.684
 20
99.8314
 30
0.000000
  70
    32
  0
VERTEX
  8
0
  5
B2A5
 10
335.793
 20
99.8397
 30
0.000000
  70
    32
  0
VERTEX
  8
0
  5
B2A6
 10
335.902
 20
99.8493
 30
0.000000
  70
    32
  0
VERTEX
  8
0
  5
B2A7
 10
336.011
 20
99.8603
 30
0.000000
  70
    32
  0
VERTEX
  8
0
  5
B2A8
 10
336.120
 20
99.8725
 30
0.000000
  70
    32
  0
VERTEX
  8
0
  5
B2A9
 10
336.228
 20
99.8861
 30
0.000000
  70
    32
  0
VERTEX
  8
0
  5
B2AA
 10
336.335
 20
99.9011
 30
0.000000
  70
    32
  0
VERTEX
  8
0
  5
B2AB
 10
336.443
 20
99.9173
 30
0.000000
  70
    32
  0
VERTEX
  8
0
  5
B2AC
 10
336.549
 20
99.9349
 30
0.000000
  70
    32
  0
VERTEX
  8
0
  5
B2AD
 10
336.656
 20
99.9537
 30
0.000000
  70
    32
  0
VERTEX
  8
0
  5
B2AE
 10
336.762
 20
99.9739
 30
0.000000
  70
    32
  0
VERTEX
  8
0
  5
B2AF
 10
336.867
 20
99.9953
 30
0.000000
  70
    32
  0
VERTEX
  8
0
  5
B2B0
 10
336.971
 20
100.018
 30
0.000000
  70
    32
  0
VERTEX
  8
0
  5
B2B1
 10
337.075
 20
100.042
 30
0.000000
  70
    32
  0
VERTEX
  8
0
  5
B2B2
 10
337.179
 20
100.067
 30
0.000000
  70
    32
  0
VERTEX
  8
0
  5
B2B3
 10
337.281
 20
100.094
 30
0.000000
  70
    32
  0
VERTEX
  8
0
  5
B2B4
 10
337.383
 20
100.122
 30
0.000000
  70
    32
  0
VERTEX
  8
0
  5
B2B5
 10
337.484
 20
100.151
 30
0.000000
  70
    32
  0
VERTEX
  8
0
  5
B2B6
 10
337.584
 20
100.181
 30
0.000000
  70
    32
  0
VERTEX
  8
0
  5
B2B7
 10
337.684
 20
100.212
 30
0.000000
  70
    32
  0
VERTEX
  8
0
  5
B2B8
 10
337.782
 20
100.245
 30
0.000000
  70
    32
  0
VERTEX
  8
0
  5
B2B9
 10
337.880
 20
100.279
 30
0.000000
  70
    32
  0
VERTEX
  8
0
  5
B2BA
 10
337.976
 20
100.314
 30
0.000000
  70
    32
  0
VERTEX
  8
0
  5
B2BB
 10
338.072
 20
100.350
 30
0.000000
  70
    32
  0
VERTEX
  8
0
  5
B2BC
 10
338.166
 20
100.387
 30
0.000000
  70
    32
  0
VERTEX
  8
0
  5
B2BD
 10
338.260
 20
100.426
 30
0.000000
  70
    32
  0
VERTEX
  8
0
  5
B2BE
 10
338.353
 20
100.466
 30
0.000000
  70
    32
  0
VERTEX
  8
0
  5
B2BF
 10
338.444
 20
100.506
 30
0.000000
  70
    32
  0
VERTEX
  8
0
  5
B2C0
 10
338.534
 20
100.548
 30
0.000000
  70
    32
  0
VERTEX
  8
0
  5
B2C1
 10
338.623
 20
100.591
 30
0.000000
  70
    32
  0
VERTEX
  8
0
  5
B2C2
 10
338.711
 20
100.635
 30
0.000000
  70
    32
  0
VERTEX
  8
0
  5
B2C3
 10
338.798
 20
100.681
 30
0.000000
  70
    32
  0
VERTEX
  8
0
  5
B2C4
 10
338.883
 20
100.727
 30
0.000000
  70
    32
  0
VERTEX
  8
0
  5
B2C5
 10
338.968
 20
100.774
 30
0.000000
  70
    32
  0
VERTEX
  8
0
  5
B2C6
 10
339.050
 20
100.822
 30
0.000000
  70
    32
  0
VERTEX
  8
0
  5
B2C7
 10
339.132
 20
100.872
 30
0.000000
  70
    32
  0
VERTEX
  8
0
  5
B2C8
 10
339.212
 20
100.922
 30
0.000000
  70
    32
  0
VERTEX
  8
0
  5
B2C9
 10
339.291
 20
100.973
 30
0.000000
  70
    32
  0
VERTEX
  8
0
  5
B2CA
 10
339.368
 20
101.025
 30
0.000000
  70
    32
  0
VERTEX
  8
0
  5
B2CB
 10
339.444
 20
101.078
 30
0.000000
  70
    32
  0
VERTEX
  8
0
  5
B2CC
 10
339.518
 20
101.132
 30
0.000000
  70
    32
  0
VERTEX
  8
0
  5
B2CD
 10
339.591
 20
101.187
 30
0.000000
  70
    32
  0
VERTEX
  8
0
  5
B2CE
 10
339.662
 20
101.243
 30
0.000000
  70
    32
  0
VERTEX
  8
0
  5
B2CF
 10
339.732
 20
101.300
 30
0.000000
  70
    32
  0
VERTEX
  8
0
  5
B2D0
 10
339.800
 20
101.357
 30
0.000000
  70
    32
  0
VERTEX
  8
0
  5
B2D1
 10
339.867
 20
101.416
 30
0.000000
  70
    32
  0
VERTEX
  8
0
  5
B2D2
 10
339.932
 20
101.475
 30
0.000000
  70
    32
  0
VERTEX
  8
0
  5
B2D3
 10
339.996
 20
101.535
 30
0.000000
  70
    32
  0
VERTEX
  8
0
  5
B2D4
 10
340.057
 20
101.595
 30
0.000000
  70
    32
  0
VERTEX
  8
0
  5
B2D5
 10
340.117
 20
101.657
 30
0.000000
  70
    32
  0
VERTEX
  8
0
  5
B2D6
 10
340.176
 20
101.719
 30
0.000000
  70
    32
  0
VERTEX
  8
0
  5
B2D7
 10
340.232
 20
101.782
 30
0.000000
  70
    32
  0
VERTEX
  8
0
  5
B2D8
 10
340.287
 20
101.845
 30
0.000000
  70
    32
  0
VERTEX
  8
0
  5
B2D9
 10
340.340
 20
101.910
 30
0.000000
  70
    32
  0
VERTEX
  8
0
  5
B2DA
 10
340.392
 20
101.974
 30
0.000000
  70
    32
  0
VERTEX
  8
0
  5
B2DB
 10
340.441
 20
102.040
 30
0.000000
  70
    32
  0
VERTEX
  8
0
  5
B2DC
 10
340.489
 20
102.106
 30
0.000000
  70
    32
  0
VERTEX
  8
0
  5
B2DD
 10
340.535
 20
102.173
 30
0.000000
  70
    32
  0
VERTEX
  8
0
  5
B2DE
 10
340.579
 20
102.240
 30
0.000000
  70
    32
  0
VERTEX
  8
0
  5
B2DF
 10
340.621
 20
102.307
 30
0.000000
  70
    32
  0
VERTEX
  8
0
  5
B2E0
 10
340.662
 20
102.376
 30
0.000000
  70
    32
  0
VERTEX
  8
0
  5
B2E1
 10
340.700
 20
102.444
 30
0.000000
  70
    32
  0
VERTEX
  8
0
  5
B2E2
 10
340.737
 20
102.514
 30
0.000000
  70
    32
  0
VERTEX
  8
0
  5
B2E3
 10
340.771
 20
102.583
 30
0.000000
  70
    32
  0
VERTEX
  8
0
  5
B2E4
 10
340.804
 20
102.653
 30
0.000000
  70
    32
  0
VERTEX
  8
0
  5
B2E5
 10
340.835
 20
102.724
 30
0.000000
  70
    32
  0
VERTEX
  8
0
  5
B2E6
 10
340.864
 20
102.794
 30
0.000000
  70
    32
  0
VERTEX
  8
0
  5
B2E7
 10
340.891
 20
102.865
 30
0.000000
  70
    32
  0
VERTEX
  8
0
  5
B2E8
 10
340.916
 20
102.937
 30
0.000000
  70
    32
  0
VERTEX
  8
0
  5
B2E9
 10
340.939
 20
103.009
 30
0.000000
  70
    32
  0
VERTEX
  8
0
  5
B2EA
 10
340.960
 20
103.080
 30
0.000000
  70
    32
  0
VERTEX
  8
0
  5
B2EB
 10
340.979
 20
103.153
 30
0.000000
  70
    32
  0
VERTEX
  8
0
  5
B2EC
 10
340.996
 20
103.225
 30
0.000000
  70
    32
  0
VERTEX
  8
0
  5
B2ED
 10
341.011
 20
103.298
 30
0.000000
  70
    32
  0
VERTEX
  8
0
  5
B2EE
 10
341.024
 20
103.371
 30
0.000000
  70
    32
  0
VERTEX
  8
0
  5
B2EF
 10
341.035
 20
103.444
 30
0.000000
  70
    32
  0
VERTEX
  8
0
  5
B2F0
 10
341.044
 20
103.517
 30
0.000000
  70
    32
  0
VERTEX
  8
0
  5
B2F1
 10
341.051
 20
103.590
 30
0.000000
  70
    32
  0
VERTEX
  8
0
  5
B2F2
 10
341.056
 20
103.663
 30
0.000000
  70
    32
  0
VERTEX
  8
0
  5
B2F3
 10
341.060
 20
103.736
 30
0.000000
  70
    32
  0
VERTEX
  8
0
  5
B2F4
 10
341.061
 20
103.810
 30
0.000000
  70
    32
  0
SEQEND
  8
0
  5
B2F5
  0
POLYLINE
  5
843F
  8
0
 10
319.06052453744587
 20
103.80973820232302
 30
0.0
 66
     1
 70
     8
  0
VERTEX
  8
0
  5
B2F6
 10
319.061
 20
103.810
 30
0.000000
  70
    32
  0
VERTEX
  8
0
  5
B2F7
 10
319.061
 20
103.737
 30
0.000000
  70
    32
  0
VERTEX
  8
0
  5
B2F8
 10
319.064
 20
103.665
 30
0.000000
  70
    32
  0
VERTEX
  8
0
  5
B2F9
 10
319.068
 20
103.593
 30
0.000000
  70
    32
  0
VERTEX
  8
0
  5
B2FA
 10
319.074
 20
103.521
 30
0.000000
  70
    32
  0
VERTEX
  8
0
  5
B2FB
 10
319.081
 20
103.449
 30
0.000000
  70
    32
  0
VERTEX
  8
0
  5
B2FC
 10
319.090
 20
103.377
 30
0.000000
  70
    32
  0
VERTEX
  8
0
  5
B2FD
 10
319.100
 20
103.305
 30
0.000000
  70
    32
  0
VERTEX
  8
0
  5
B2FE
 10
319.113
 20
103.233
 30
0.000000
  70
    32
  0
VERTEX
  8
0
  5
B2FF
 10
319.127
 20
103.162
 30
0.000000
  70
    32
  0
VERTEX
  8
0
  5
B300
 10
319.142
 20
103.091
 30
0.000000
  70
    32
  0
VERTEX
  8
0
  5
B301
 10
319.159
 20
103.020
 30
0.000000
  70
    32
  0
VERTEX
  8
0
  5
B302
 10
319.178
 20
102.949
 30
0.000000
  70
    32
  0
VERTEX
  8
0
  5
B303
 10
319.198
 20
102.879
 30
0.000000
  70
    32
  0
VERTEX
  8
0
  5
B304
 10
319.220
 20
102.808
 30
0.000000
  70
    32
  0
VERTEX
  8
0
  5
B305
 10
319.243
 20
102.739
 30
0.000000
  70
    32
  0
VERTEX
  8
0
  5
B306
 10
319.268
 20
102.669
 30
0.000000
  70
    32
  0
VERTEX
  8
0
  5
B307
 10
319.295
 20
102.600
 30
0.000000
  70
    32
  0
VERTEX
  8
0
  5
B308
 10
319.323
 20
102.531
 30
0.000000
  70
    32
  0
VERTEX
  8
0
  5
B309
 10
319.352
 20
102.463
 30
0.000000
  70
    32
  0
VERTEX
  8
0
  5
B30A
 10
319.384
 20
102.395
 30
0.000000
  70
    32
  0
VERTEX
  8
0
  5
B30B
 10
319.416
 20
102.328
 30
0.000000
  70
    32
  0
VERTEX
  8
0
  5
B30C
 10
319.451
 20
102.261
 30
0.000000
  70
    32
  0
VERTEX
  8
0
  5
B30D
 10
319.486
 20
102.195
 30
0.000000
  70
    32
  0
VERTEX
  8
0
  5
B30E
 10
319.523
 20
102.129
 30
0.000000
  70
    32
  0
VERTEX
  8
0
  5
B30F
 10
319.562
 20
102.063
 30
0.000000
  70
    32
  0
VERTEX
  8
0
  5
B310
 10
319.602
 20
101.999
 30
0.000000
  70
    32
  0
VERTEX
  8
0
  5
B311
 10
319.644
 20
101.934
 30
0.000000
  70
    32
  0
VERTEX
  8
0
  5
B312
 10
319.687
 20
101.871
 30
0.000000
  70
    32
  0
VERTEX
  8
0
  5
B313
 10
319.732
 20
101.808
 30
0.000000
  70
    32
  0
VERTEX
  8
0
  5
B314
 10
319.778
 20
101.746
 30
0.000000
  70
    32
  0
VERTEX
  8
0
  5
B315
 10
319.825
 20
101.684
 30
0.000000
  70
    32
  0
VERTEX
  8
0
  5
B316
 10
319.874
 20
101.623
 30
0.000000
  70
    32
  0
VERTEX
  8
0
  5
B317
 10
319.924
 20
101.563
 30
0.000000
  70
    32
  0
VERTEX
  8
0
  5
B318
 10
319.975
 20
101.504
 30
0.000000
  70
    32
  0
VERTEX
  8
0
  5
B319
 10
320.028
 20
101.445
 30
0.000000
  70
    32
  0
VERTEX
  8
0
  5
B31A
 10
320.082
 20
101.387
 30
0.000000
  70
    32
  0
VERTEX
  8
0
  5
B31B
 10
320.137
 20
101.330
 30
0.000000
  70
    32
  0
VERTEX
  8
0
  5
B31C
 10
320.194
 20
101.274
 30
0.000000
  70
    32
  0
VERTEX
  8
0
  5
B31D
 10
320.252
 20
101.218
 30
0.000000
  70
    32
  0
VERTEX
  8
0
  5
B31E
 10
320.311
 20
101.164
 30
0.000000
  70
    32
  0
VERTEX
  8
0
  5
B31F
 10
320.371
 20
101.110
 30
0.000000
  70
    32
  0
VERTEX
  8
0
  5
B320
 10
320.433
 20
101.057
 30
0.000000
  70
    32
  0
VERTEX
  8
0
  5
B321
 10
320.496
 20
101.005
 30
0.000000
  70
    32
  0
VERTEX
  8
0
  5
B322
 10
320.560
 20
100.954
 30
0.000000
  70
    32
  0
VERTEX
  8
0
  5
B323
 10
320.625
 20
100.904
 30
0.000000
  70
    32
  0
VERTEX
  8
0
  5
B324
 10
320.691
 20
100.854
 30
0.000000
  70
    32
  0
VERTEX
  8
0
  5
B325
 10
320.758
 20
100.806
 30
0.000000
  70
    32
  0
VERTEX
  8
0
  5
B326
 10
320.827
 20
100.759
 30
0.000000
  70
    32
  0
VERTEX
  8
0
  5
B327
 10
320.896
 20
100.713
 30
0.000000
  70
    32
  0
VERTEX
  8
0
  5
B328
 10
320.967
 20
100.667
 30
0.000000
  70
    32
  0
VERTEX
  8
0
  5
B329
 10
321.038
 20
100.623
 30
0.000000
  70
    32
  0
VERTEX
  8
0
  5
B32A
 10
321.111
 20
100.580
 30
0.000000
  70
    32
  0
VERTEX
  8
0
  5
B32B
 10
321.184
 20
100.538
 30
0.000000
  70
    32
  0
VERTEX
  8
0
  5
B32C
 10
321.258
 20
100.497
 30
0.000000
  70
    32
  0
VERTEX
  8
0
  5
B32D
 10
321.334
 20
100.457
 30
0.000000
  70
    32
  0
VERTEX
  8
0
  5
B32E
 10
321.410
 20
100.418
 30
0.000000
  70
    32
  0
VERTEX
  8
0
  5
B32F
 10
321.487
 20
100.380
 30
0.000000
  70
    32
  0
VERTEX
  8
0
  5
B330
 10
321.565
 20
100.344
 30
0.000000
  70
    32
  0
VERTEX
  8
0
  5
B331
 10
321.643
 20
100.308
 30
0.000000
  70
    32
  0
VERTEX
  8
0
  5
B332
 10
321.723
 20
100.274
 30
0.000000
  70
    32
  0
VERTEX
  8
0
  5
B333
 10
321.803
 20
100.241
 30
0.000000
  70
    32
  0
VERTEX
  8
0
  5
B334
 10
321.884
 20
100.209
 30
0.000000
  70
    32
  0
VERTEX
  8
0
  5
B335
 10
321.966
 20
100.178
 30
0.000000
  70
    32
  0
VERTEX
  8
0
  5
B336
 10
322.048
 20
100.148
 30
0.000000
  70
    32
  0
VERTEX
  8
0
  5
B337
 10
322.131
 20
100.119
 30
0.000000
  70
    32
  0
VERTEX
  8
0
  5
B338
 10
322.215
 20
100.092
 30
0.000000
  70
    32
  0
VERTEX
  8
0
  5
B339
 10
322.299
 20
100.066
 30
0.000000
  70
    32
  0
VERTEX
  8
0
  5
B33A
 10
322.384
 20
100.041
 30
0.000000
  70
    32
  0
VERTEX
  8
0
  5
B33B
 10
322.470
 20
100.018
 30
0.000000
  70
    32
  0
VERTEX
  8
0
  5
B33C
 10
322.555
 20
99.9953
 30
0.000000
  70
    32
  0
VERTEX
  8
0
  5
B33D
 10
322.642
 20
99.9741
 30
0.000000
  70
    32
  0
VERTEX
  8
0
  5
B33E
 10
322.729
 20
99.9542
 30
0.000000
  70
    32
  0
VERTEX
  8
0
  5
B33F
 10
322.816
 20
99.9356
 30
0.000000
  70
    32
  0
VERTEX
  8
0
  5
B340
 10
322.904
 20
99.9183
 30
0.000000
  70
    32
  0
VERTEX
  8
0
  5
B341
 10
322.992
 20
99.9022
 30
0.000000
  70
    32
  0
VERTEX
  8
0
  5
B342
 10
323.080
 20
99.8874
 30
0.000000
  70
    32
  0
VERTEX
  8
0
  5
B343
 10
323.169
 20
99.8738
 30
0.000000
  70
    32
  0
VERTEX
  8
0
  5
B344
 10
323.258
 20
99.8616
 30
0.000000
  70
    32
  0
VERTEX
  8
0
  5
B345
 10
323.347
 20
99.8506
 30
0.000000
  70
    32
  0
VERTEX
  8
0
  5
B346
 10
323.437
 20
99.8410
 30
0.000000
  70
    32
  0
VERTEX
  8
0
  5
B347
 10
323.527
 20
99.8326
 30
0.000000
  70
    32
  0
VERTEX
  8
0
  5
B348
 10
323.617
 20
99.8255
 30
0.000000
  70
    32
  0
VERTEX
  8
0
  5
B349
 10
323.707
 20
99.8198
 30
0.000000
  70
    32
  0
VERTEX
  8
0
  5
B34A
 10
323.797
 20
99.8153
 30
0.000000
  70
    32
  0
VERTEX
  8
0
  5
B34B
 10
323.887
 20
99.8121
 30
0.000000
  70
    32
  0
VERTEX
  8
0
  5
B34C
 10
323.978
 20
99.8103
 30
0.000000
  70
    32
  0
VERTEX
  8
0
  5
B34D
 10
324.068
 20
99.8097
 30
0.000000
  70
    32
  0
VERTEX
  8
0
  5
B34E
 10
324.158
 20
99.8105
 30
0.000000
  70
    32
  0
VERTEX
  8
0
  5
B34F
 10
324.249
 20
99.8126
 30
0.000000
  70
    32
  0
VERTEX
  8
0
  5
B350
 10
324.339
 20
99.8159
 30
0.000000
  70
    32
  0
VERTEX
  8
0
  5
B351
 10
324.429
 20
99.8206
 30
0.000000
  70
    32
  0
VERTEX
  8
0
  5
B352
 10
324.519
 20
99.8266
 30
0.000000
  70
    32
  0
VERTEX
  8
0
  5
B353
 10
324.609
 20
99.8339
 30
0.000000
  70
    32
  0
VERTEX
  8
0
  5
B354
 10
324.699
 20
99.8424
 30
0.000000
  70
    32
  0
VERTEX
  8
0
  5
B355
 10
324.788
 20
99.8523
 30
0.000000
  70
    32
  0
VERTEX
  8
0
  5
B356
 10
324.877
 20
99.8635
 30
0.000000
  70
    32
  0
VERTEX
  8
0
  5
B357
 10
324.966
 20
99.8759
 30
0.000000
  70
    32
  0
VERTEX
  8
0
  5
B358
 10
325.055
 20
99.8897
 30
0.000000
  70
    32
  0
VERTEX
  8
0
  5
B359
 10
325.144
 20
99.9047
 30
0.000000
  70
    32
  0
VERTEX
  8
0
  5
B35A
 10
325.232
 20
99.9210
 30
0.000000
  70
    32
  0
VERTEX
  8
0
  5
B35B
 10
325.319
 20
99.9386
 30
0.000000
  70
    32
  0
VERTEX
  8
0
  5
B35C
 10
325.406
 20
99.9574
 30
0.000000
  70
    32
  0
VERTEX
  8
0
  5
B35D
 10
325.493
 20
99.9775
 30
0.000000
  70
    32
  0
VERTEX
  8
0
  5
B35E
 10
325.580
 20
99.9988
 30
0.000000
  70
    32
  0
VERTEX
  8
0
  5
B35F
 10
325.665
 20
100.021
 30
0.000000
  70
    32
  0
VERTEX
  8
0
  5
B360
 10
325.751
 20
100.045
 30
0.000000
  70
    32
  0
VERTEX
  8
0
  5
B361
 10
325.836
 20
100.070
 30
0.000000
  70
    32
  0
VERTEX
  8
0
  5
B362
 10
325.920
 20
100.097
 30
0.000000
  70
    32
  0
VERTEX
  8
0
  5
B363
 10
326.003
 20
100.124
 30
0.000000
  70
    32
  0
VERTEX
  8
0
  5
B364
 10
326.086
 20
100.153
 30
0.000000
  70
    32
  0
VERTEX
  8
0
  5
B365
 10
326.168
 20
100.183
 30
0.000000
  70
    32
  0
VERTEX
  8
0
  5
B366
 10
326.250
 20
100.214
 30
0.000000
  70
    32
  0
VERTEX
  8
0
  5
B367
 10
326.331
 20
100.246
 30
0.000000
  70
    32
  0
VERTEX
  8
0
  5
B368
 10
326.411
 20
100.279
 30
0.000000
  70
    32
  0
VERTEX
  8
0
  5
B369
 10
326.490
 20
100.314
 30
0.000000
  70
    32
  0
VERTEX
  8
0
  5
B36A
 10
326.569
 20
100.350
 30
0.000000
  70
    32
  0
VERTEX
  8
0
  5
B36B
 10
326.647
 20
100.386
 30
0.000000
  70
    32
  0
VERTEX
  8
0
  5
B36C
 10
326.724
 20
100.424
 30
0.000000
  70
    32
  0
VERTEX
  8
0
  5
B36D
 10
326.800
 20
100.463
 30
0.000000
  70
    32
  0
VERTEX
  8
0
  5
B36E
 10
326.875
 20
100.504
 30
0.000000
  70
    32
  0
VERTEX
  8
0
  5
B36F
 10
326.949
 20
100.545
 30
0.000000
  70
    32
  0
VERTEX
  8
0
  5
B370
 10
327.022
 20
100.587
 30
0.000000
  70
    32
  0
VERTEX
  8
0
  5
B371
 10
327.095
 20
100.630
 30
0.000000
  70
    32
  0
VERTEX
  8
0
  5
B372
 10
327.166
 20
100.675
 30
0.000000
  70
    32
  0
VERTEX
  8
0
  5
B373
 10
327.236
 20
100.720
 30
0.000000
  70
    32
  0
VERTEX
  8
0
  5
B374
 10
327.306
 20
100.767
 30
0.000000
  70
    32
  0
VERTEX
  8
0
  5
B375
 10
327.374
 20
100.814
 30
0.000000
  70
    32
  0
VERTEX
  8
0
  5
B376
 10
327.441
 20
100.862
 30
0.000000
  70
    32
  0
SEQEND
  8
0
  5
B377
  0
ARC
  5
8440
  8
0
 10
329.21610141941892
 20
98.44400700838969
 30
0.0
 40
3.0
 50
56.810140790317398
 51
126.28000834907991
  0
ARC
  5
8441
  8
0
 10
319.06052453743911
 20
598.80973820232293
 30
0.0
 40
3.0
 50
180.0
 51
270.0
  0
ARC
  5
8442
  8
0
 10
319.06052453744587
 20
100.8097382023229
 30
0.0
 40
3.0
 50
90.0
 51
180.0
  0
LINE
  5
8443
  8
0
 10
319.0605245374386
 20
637.80973872126242
 30
0.0
 11
412.50386491868579
 21
637.80973872126242
 31
0.0
  0
LINE
  5
8444
  8
0
 10
325.06052453743911
 20
631.80973872126242
 30
0.0
 11
411.9789329375302
 21
631.80973872126242
 31
0.0
  0
LINE
  5
8445
  8
0
 10
325.06052453743911
 20
601.80973872126242
 30
0.0
 11
409.3542730317526
 21
601.80973872126242
 31
0.0
  0
LINE
  5
8446
  8
0
 10
319.06052453743911
 20
61.80973872126242
 30
0.0
 11
362.11039472775337
 21
61.80973872126242
 31
0.0
  0
LINE
  5
8447
  8
0
 10
325.06052453743911
 20
67.80973872126242
 30
0.0
 11
362.63532670890891
 21
67.80973872126242
 31
0.0
  0
LINE
  5
8448
  8
0
 10
325.06052453743911
 20
97.80973872126242
 30
0.0
 11
365.25998661468662
 21
97.80973872126242
 31
0.0
  0
LINE
  5
8449
  8
0
 10
417.91151613329657
 20
699.61947493935941
 30
0.0
 11
356.70274374297702
 21
0.0000051301849453
 31
0.0
  0
LINE
  5
844A
  8
0
 10
381.06052453743769
 20
595.80854034283436
 30
0.0
 11
396.06052453743808
 21
595.80854034283436
 31
0.0
  0
LINE
  5
844B
  8
0
 10
396.06052453743808
 20
595.80854034283436
 30
0.0
 11
396.06052453743769
 21
449.86149813149541
 31
0.0
  0
LINE
  5
844C
  8
0
 10
408.0605245374349
 20
598.02360166520918
 30
0.0
 11
408.0616675026294
 21
587.03518991654573
 31
0.0
  0
LINE
  5
844D
  8
0
 10
401.0605245374349
 20
599.75259353382398
 30
0.0
 11
401.0605245374349
 21
507.01175964526601
 31
0.0
  0
POLYLINE
  5
844E
  8
0
 10
406.40721024911318
 20
598.56585982032459
 30
0.0
 66
     1
 70
     8
  0
VERTEX
  8
0
  5
B378
 10
406.407
 20
598.566
 30
0.000000
  70
    32
  0
VERTEX
  8
0
  5
B379
 10
406.330
 20
598.619
 30
0.000000
  70
    32
  0
VERTEX
  8
0
  5
B37A
 10
406.250
 20
598.672
 30
0.000000
  70
    32
  0
VERTEX
  8
0
  5
B37B
 10
406.170
 20
598.723
 30
0.000000
  70
    32
  0
VERTEX
  8
0
  5
B37C
 10
406.088
 20
598.774
 30
0.000000
  70
    32
  0
VERTEX
  8
0
  5
B37D
 10
406.004
 20
598.823
 30
0.000000
  70
    32
  0
VERTEX
  8
0
  5
B37E
 10
405.920
 20
598.871
 30
0.000000
  70
    32
  0
VERTEX
  8
0
  5
B37F
 10
405.833
 20
598.919
 30
0.000000
  70
    32
  0
VERTEX
  8
0
  5
B380
 10
405.746
 20
598.965
 30
0.000000
  70
    32
  0
VERTEX
  8
0
  5
B381
 10
405.657
 20
599.010
 30
0.000000
  70
    32
  0
VERTEX
  8
0
  5
B382
 10
405.567
 20
599.054
 30
0.000000
  70
    32
  0
VERTEX
  8
0
  5
B383
 10
405.476
 20
599.097
 30
0.000000
  70
    32
  0
VERTEX
  8
0
  5
B384
 10
405.384
 20
599.139
 30
0.000000
  70
    32
  0
VERTEX
  8
0
  5
B385
 10
405.290
 20
599.180
 30
0.000000
  70
    32
  0
VERTEX
  8
0
  5
B386
 10
405.196
 20
599.219
 30
0.000000
  70
    32
  0
VERTEX
  8
0
  5
B387
 10
405.100
 20
599.257
 30
0.000000
  70
    32
  0
VERTEX
  8
0
  5
B388
 10
405.003
 20
599.294
 30
0.000000
  70
    32
  0
VERTEX
  8
0
  5
B389
 10
404.905
 20
599.330
 30
0.000000
  70
    32
  0
VERTEX
  8
0
  5
B38A
 10
404.807
 20
599.365
 30
0.000000
  70
    32
  0
VERTEX
  8
0
  5
B38B
 10
404.707
 20
599.398
 30
0.000000
  70
    32
  0
VERTEX
  8
0
  5
B38C
 10
404.606
 20
599.431
 30
0.000000
  70
    32
  0
VERTEX
  8
0
  5
B38D
 10
404.505
 20
599.462
 30
0.000000
  70
    32
  0
VERTEX
  8
0
  5
B38E
 10
404.403
 20
599.491
 30
0.000000
  70
    32
  0
VERTEX
  8
0
  5
B38F
 10
404.299
 20
599.520
 30
0.000000
  70
    32
  0
VERTEX
  8
0
  5
B390
 10
404.195
 20
599.547
 30
0.000000
  70
    32
  0
VERTEX
  8
0
  5
B391
 10
404.091
 20
599.573
 30
0.000000
  70
    32
  0
VERTEX
  8
0
  5
B392
 10
403.985
 20
599.597
 30
0.000000
  70
    32
  0
VERTEX
  8
0
  5
B393
 10
403.879
 20
599.620
 30
0.000000
  70
    32
  0
VERTEX
  8
0
  5
B394
 10
403.773
 20
599.642
 30
0.000000
  70
    32
  0
VERTEX
  8
0
  5
B395
 10
403.665
 20
599.663
 30
0.000000
  70
    32
  0
VERTEX
  8
0
  5
B396
 10
403.558
 20
599.682
 30
0.000000
  70
    32
  0
VERTEX
  8
0
  5
B397
 10
403.449
 20
599.700
 30
0.000000
  70
    32
  0
VERTEX
  8
0
  5
B398
 10
403.340
 20
599.716
 30
0.000000
  70
    32
  0
VERTEX
  8
0
  5
B399
 10
403.231
 20
599.732
 30
0.000000
  70
    32
  0
VERTEX
  8
0
  5
B39A
 10
403.122
 20
599.746
 30
0.000000
  70
    32
  0
VERTEX
  8
0
  5
B39B
 10
403.012
 20
599.758
 30
0.000000
  70
    32
  0
VERTEX
  8
0
  5
B39C
 10
402.901
 20
599.769
 30
0.000000
  70
    32
  0
VERTEX
  8
0
  5
B39D
 10
402.791
 20
599.779
 30
0.000000
  70
    32
  0
VERTEX
  8
0
  5
B39E
 10
402.680
 20
599.787
 30
0.000000
  70
    32
  0
VERTEX
  8
0
  5
B39F
 10
402.568
 20
599.794
 30
0.000000
  70
    32
  0
VERTEX
  8
0
  5
B3A0
 10
402.457
 20
599.800
 30
0.000000
  70
    32
  0
VERTEX
  8
0
  5
B3A1
 10
402.346
 20
599.804
 30
0.000000
  70
    32
  0
VERTEX
  8
0
  5
B3A2
 10
402.234
 20
599.807
 30
0.000000
  70
    32
  0
VERTEX
  8
0
  5
B3A3
 10
402.123
 20
599.808
 30
0.000000
  70
    32
  0
VERTEX
  8
0
  5
B3A4
 10
402.011
 20
599.808
 30
0.000000
  70
    32
  0
VERTEX
  8
0
  5
B3A5
 10
401.899
 20
599.807
 30
0.000000
  70
    32
  0
VERTEX
  8
0
  5
B3A6
 10
401.788
 20
599.804
 30
0.000000
  70
    32
  0
VERTEX
  8
0
  5
B3A7
 10
401.676
 20
599.800
 30
0.000000
  70
    32
  0
VERTEX
  8
0
  5
B3A8
 10
401.565
 20
599.795
 30
0.000000
  70
    32
  0
VERTEX
  8
0
  5
B3A9
 10
401.454
 20
599.788
 30
0.000000
  70
    32
  0
VERTEX
  8
0
  5
B3AA
 10
401.343
 20
599.780
 30
0.000000
  70
    32
  0
VERTEX
  8
0
  5
B3AB
 10
401.232
 20
599.770
 30
0.000000
  70
    32
  0
VERTEX
  8
0
  5
B3AC
 10
401.122
 20
599.759
 30
0.000000
  70
    32
  0
VERTEX
  8
0
  5
B3AD
 10
401.012
 20
599.747
 30
0.000000
  70
    32
  0
VERTEX
  8
0
  5
B3AE
 10
400.902
 20
599.733
 30
0.000000
  70
    32
  0
VERTEX
  8
0
  5
B3AF
 10
400.793
 20
599.718
 30
0.000000
  70
    32
  0
VERTEX
  8
0
  5
B3B0
 10
400.684
 20
599.702
 30
0.000000
  70
    32
  0
VERTEX
  8
0
  5
B3B1
 10
400.576
 20
599.684
 30
0.000000
  70
    32
  0
VERTEX
  8
0
  5
B3B2
 10
400.468
 20
599.665
 30
0.000000
  70
    32
  0
VERTEX
  8
0
  5
B3B3
 10
400.360
 20
599.645
 30
0.000000
  70
    32
  0
VERTEX
  8
0
  5
B3B4
 10
400.254
 20
599.623
 30
0.000000
  70
    32
  0
VERTEX
  8
0
  5
B3B5
 10
400.148
 20
599.600
 30
0.000000
  70
    32
  0
VERTEX
  8
0
  5
B3B6
 10
400.042
 20
599.575
 30
0.000000
  70
    32
  0
VERTEX
  8
0
  5
B3B7
 10
399.937
 20
599.550
 30
0.000000
  70
    32
  0
VERTEX
  8
0
  5
B3B8
 10
399.833
 20
599.523
 30
0.000000
  70
    32
  0
VERTEX
  8
0
  5
B3B9
 10
399.730
 20
599.495
 30
0.000000
  70
    32
  0
VERTEX
  8
0
  5
B3BA
 10
399.628
 20
599.465
 30
0.000000
  70
    32
  0
VERTEX
  8
0
  5
B3BB
 10
399.526
 20
599.434
 30
0.000000
  70
    32
  0
VERTEX
  8
0
  5
B3BC
 10
399.425
 20
599.402
 30
0.000000
  70
    32
  0
VERTEX
  8
0
  5
B3BD
 10
399.326
 20
599.369
 30
0.000000
  70
    32
  0
VERTEX
  8
0
  5
B3BE
 10
399.227
 20
599.334
 30
0.000000
  70
    32
  0
VERTEX
  8
0
  5
B3BF
 10
399.129
 20
599.299
 30
0.000000
  70
    32
  0
VERTEX
  8
0
  5
B3C0
 10
399.032
 20
599.262
 30
0.000000
  70
    32
  0
VERTEX
  8
0
  5
B3C1
 10
398.936
 20
599.223
 30
0.000000
  70
    32
  0
VERTEX
  8
0
  5
B3C2
 10
398.841
 20
599.184
 30
0.000000
  70
    32
  0
VERTEX
  8
0
  5
B3C3
 10
398.748
 20
599.144
 30
0.000000
  70
    32
  0
VERTEX
  8
0
  5
B3C4
 10
398.655
 20
599.102
 30
0.000000
  70
    32
  0
VERTEX
  8
0
  5
B3C5
 10
398.564
 20
599.059
 30
0.000000
  70
    32
  0
VERTEX
  8
0
  5
B3C6
 10
398.474
 20
599.015
 30
0.000000
  70
    32
  0
VERTEX
  8
0
  5
B3C7
 10
398.385
 20
598.970
 30
0.000000
  70
    32
  0
VERTEX
  8
0
  5
B3C8
 10
398.298
 20
598.924
 30
0.000000
  70
    32
  0
VERTEX
  8
0
  5
B3C9
 10
398.211
 20
598.877
 30
0.000000
  70
    32
  0
VERTEX
  8
0
  5
B3CA
 10
398.126
 20
598.829
 30
0.000000
  70
    32
  0
VERTEX
  8
0
  5
B3CB
 10
398.043
 20
598.779
 30
0.000000
  70
    32
  0
VERTEX
  8
0
  5
B3CC
 10
397.961
 20
598.729
 30
0.000000
  70
    32
  0
VERTEX
  8
0
  5
B3CD
 10
397.880
 20
598.678
 30
0.000000
  70
    32
  0
VERTEX
  8
0
  5
B3CE
 10
397.800
 20
598.625
 30
0.000000
  70
    32
  0
VERTEX
  8
0
  5
B3CF
 10
397.723
 20
598.572
 30
0.000000
  70
    32
  0
VERTEX
  8
0
  5
B3D0
 10
397.646
 20
598.518
 30
0.000000
  70
    32
  0
VERTEX
  8
0
  5
B3D1
 10
397.571
 20
598.462
 30
0.000000
  70
    32
  0
VERTEX
  8
0
  5
B3D2
 10
397.498
 20
598.406
 30
0.000000
  70
    32
  0
VERTEX
  8
0
  5
B3D3
 10
397.426
 20
598.349
 30
0.000000
  70
    32
  0
VERTEX
  8
0
  5
B3D4
 10
397.356
 20
598.291
 30
0.000000
  70
    32
  0
VERTEX
  8
0
  5
B3D5
 10
397.288
 20
598.233
 30
0.000000
  70
    32
  0
VERTEX
  8
0
  5
B3D6
 10
397.221
 20
598.173
 30
0.000000
  70
    32
  0
VERTEX
  8
0
  5
B3D7
 10
397.156
 20
598.113
 30
0.000000
  70
    32
  0
VERTEX
  8
0
  5
B3D8
 10
397.092
 20
598.051
 30
0.000000
  70
    32
  0
VERTEX
  8
0
  5
B3D9
 10
397.031
 20
597.989
 30
0.000000
  70
    32
  0
VERTEX
  8
0
  5
B3DA
 10
396.971
 20
597.927
 30
0.000000
  70
    32
  0
VERTEX
  8
0
  5
B3DB
 10
396.913
 20
597.863
 30
0.000000
  70
    32
  0
VERTEX
  8
0
  5
B3DC
 10
396.856
 20
597.799
 30
0.000000
  70
    32
  0
VERTEX
  8
0
  5
B3DD
 10
396.802
 20
597.734
 30
0.000000
  70
    32
  0
VERTEX
  8
0
  5
B3DE
 10
396.749
 20
597.669
 30
0.000000
  70
    32
  0
VERTEX
  8
0
  5
B3DF
 10
396.698
 20
597.602
 30
0.000000
  70
    32
  0
VERTEX
  8
0
  5
B3E0
 10
396.649
 20
597.536
 30
0.000000
  70
    32
  0
VERTEX
  8
0
  5
B3E1
 10
396.601
 20
597.468
 30
0.000000
  70
    32
  0
VERTEX
  8
0
  5
B3E2
 10
396.556
 20
597.400
 30
0.000000
  70
    32
  0
VERTEX
  8
0
  5
B3E3
 10
396.513
 20
597.332
 30
0.000000
  70
    32
  0
VERTEX
  8
0
  5
B3E4
 10
396.471
 20
597.263
 30
0.000000
  70
    32
  0
VERTEX
  8
0
  5
B3E5
 10
396.431
 20
597.193
 30
0.000000
  70
    32
  0
VERTEX
  8
0
  5
B3E6
 10
396.394
 20
597.123
 30
0.000000
  70
    32
  0
VERTEX
  8
0
  5
B3E7
 10
396.358
 20
597.052
 30
0.000000
  70
    32
  0
VERTEX
  8
0
  5
B3E8
 10
396.324
 20
596.982
 30
0.000000
  70
    32
  0
VERTEX
  8
0
  5
B3E9
 10
396.293
 20
596.910
 30
0.000000
  70
    32
  0
VERTEX
  8
0
  5
B3EA
 10
396.263
 20
596.839
 30
0.000000
  70
    32
  0
VERTEX
  8
0
  5
B3EB
 10
396.235
 20
596.766
 30
0.000000
  70
    32
  0
VERTEX
  8
0
  5
B3EC
 10
396.209
 20
596.694
 30
0.000000
  70
    32
  0
VERTEX
  8
0
  5
B3ED
 10
396.186
 20
596.621
 30
0.000000
  70
    32
  0
VERTEX
  8
0
  5
B3EE
 10
396.164
 20
596.548
 30
0.000000
  70
    32
  0
VERTEX
  8
0
  5
B3EF
 10
396.144
 20
596.475
 30
0.000000
  70
    32
  0
VERTEX
  8
0
  5
B3F0
 10
396.127
 20
596.402
 30
0.000000
  70
    32
  0
VERTEX
  8
0
  5
B3F1
 10
396.111
 20
596.328
 30
0.000000
  70
    32
  0
VERTEX
  8
0
  5
B3F2
 10
396.098
 20
596.254
 30
0.000000
  70
    32
  0
VERTEX
  8
0
  5
B3F3
 10
396.086
 20
596.180
 30
0.000000
  70
    32
  0
VERTEX
  8
0
  5
B3F4
 10
396.077
 20
596.106
 30
0.000000
  70
    32
  0
VERTEX
  8
0
  5
B3F5
 10
396.070
 20
596.032
 30
0.000000
  70
    32
  0
VERTEX
  8
0
  5
B3F6
 10
396.065
 20
595.957
 30
0.000000
  70
    32
  0
VERTEX
  8
0
  5
B3F7
 10
396.062
 20
595.883
 30
0.000000
  70
    32
  0
VERTEX
  8
0
  5
B3F8
 10
396.061
 20
595.809
 30
0.000000
  70
    32
  0
SEQEND
  8
0
  5
B3F9
  0
ARC
  5
844F
  8
0
 10
408.12863567834933
 20
601.02282837762823
 30
0.0
 40
3.0
 50
234.9837682940298
 51
287.58973355011699
  0
LINE
  5
8450
  8
0
 10
71.060529034672072
 20
649.80973613314654
 30
0.0
 11
173.55372715022619
 21
649.80973613314654
 31
0.0
  0
LINE
  5
8451
  8
0
 10
71.060529034672072
 20
49.809736133146536
 30
0.0
 11
121.0605290346721
 21
49.809736133146536
 31
0.0
  0
LINE
  5
8452
  8
0
 10
76.06052269175143
 20
64.809734819637924
 30
0.0
 11
76.060522691750975
 21
634.80973481963701
 31
0.0
  0
ARC
  5
8453
  8
0
 10
79.06052269175143
 20
64.809734819637924
 30
0.0
 40
3.0
 50
180.0
 51
270.0
  0
ARC
  5
8454
  8
0
 10
79.060522691750975
 20
634.80973481963701
 30
0.0
 40
3.0
 50
90.0
 51
180.0
  0
LINE
  5
8455
  8
0
 10
82.060522691751444
 20
628.80973481963701
 30
0.0
 11
82.060522691751444
 21
604.80973481963701
 31
0.0
  0
ARC
  5
8456
  8
0
 10
85.06052269175143
 20
604.80973481963701
 30
0.0
 40
3.0
 50
180.0
 51
270.0
  0
ARC
  5
8457
  8
0
 10
85.06052269175143
 20
628.80973481963701
 30
0.0
 40
3.0
 50
90.0
 51
180.0
  0
LINE
  5
8458
  8
0
 10
82.060522691751444
 20
94.809734819637015
 30
0.0
 11
82.060522691751444
 21
70.809734819637015
 31
0.0
  0
ARC
  5
8459
  8
0
 10
85.06052269175143
 20
70.809734819637015
 30
0.0
 40
3.0
 50
180.0
 51
270.0
  0
ARC
  5
845A
  8
0
 10
85.06052269175143
 20
94.809734819637015
 30
0.0
 40
3.0
 50
90.0
 51
180.0
  0
LINE
  5
845B
  8
0
 10
101.06052269175051
 20
595.80973430069753
 30
0.0
 11
101.0605225106078
 21
103.8097343006975
 31
0.0
  0
LINE
  5
845C
  8
0
 10
101.06052269175051
 20
595.80973430069753
 30
0.0
 11
116.060522691751
 21
595.80973430069753
 31
0.0
  0
LINE
  5
845D
  8
0
 10
76.060522691750975
 20
595.80973430069753
 30
0.0
 11
76.060522691750975
 21
103.8097343006975
 31
0.0
  0
LINE
  5
845E
  8
0
 10
101.06052253787441
 20
103.80932545982159
 30
0.0
 11
116.0605226917514
 21
103.8097343006975
 31
0.0
  0
LINE
  5
845F
  8
0
 10
141.06052269175049
 20
595.80973430069753
 30
0.0
 11
141.06052257489131
 21
278.41070835274792
 31
0.0
  0
LINE
  5
8460
  8
0
 10
116.060522691751
 20
595.80973430069753
 30
0.0
 11
116.060522691751
 21
103.8097343006975
 31
0.0
  0
LINE
  5
8461
  8
0
 10
138.06052269174779
 20
599.17973571240418
 30
0.0
 11
138.06052269175001
 21
244.12055278016399
 31
0.0
  0
LINE
  5
8462
  8
0
 10
128.06052269174779
 20
598.02479562307326
 30
0.0
 11
128.10916541532691
 21
130.37601862717651
 31
0.0
  0
LINE
  5
8463
  8
0
 10
121.06052269174781
 20
599.75378749168704
 30
0.0
 11
121.06052269174781
 21
99.864713532323549
 31
0.0
  0
POLYLINE
  5
8464
  8
0
 10
141.06052269175046
 20
595.8097343006973
 30
0.0
 66
     1
 70
     8
  0
VERTEX
  8
0
  5
B3FA
 10
141.061
 20
595.810
 30
0.000000
  70
    32
  0
VERTEX
  8
0
  5
B3FB
 10
141.059
 20
595.885
 30
0.000000
  70
    32
  0
VERTEX
  8
0
  5
B3FC
 10
141.056
 20
595.959
 30
0.000000
  70
    32
  0
VERTEX
  8
0
  5
B3FD
 10
141.050
 20
596.034
 30
0.000000
  70
    32
  0
VERTEX
  8
0
  5
B3FE
 10
141.042
 20
596.109
 30
0.000000
  70
    32
  0
VERTEX
  8
0
  5
B3FF
 10
141.032
 20
596.183
 30
0.000000
  70
    32
  0
VERTEX
  8
0
  5
B400
 10
141.020
 20
596.258
 30
0.000000
  70
    32
  0
VERTEX
  8
0
  5
B401
 10
141.005
 20
596.332
 30
0.000000
  70
    32
  0
VERTEX
  8
0
  5
B402
 10
140.988
 20
596.406
 30
0.000000
  70
    32
  0
VERTEX
  8
0
  5
B403
 10
140.968
 20
596.480
 30
0.000000
  70
    32
  0
VERTEX
  8
0
  5
B404
 10
140.947
 20
596.554
 30
0.000000
  70
    32
  0
VERTEX
  8
0
  5
B405
 10
140.923
 20
596.627
 30
0.000000
  70
    32
  0
VERTEX
  8
0
  5
B406
 10
140.897
 20
596.700
 30
0.000000
  70
    32
  0
VERTEX
  8
0
  5
B407
 10
140.869
 20
596.773
 30
0.000000
  70
    32
  0
VERTEX
  8
0
  5
B408
 10
140.839
 20
596.845
 30
0.000000
  70
    32
  0
VERTEX
  8
0
  5
B409
 10
140.806
 20
596.918
 30
0.000000
  70
    32
  0
VERTEX
  8
0
  5
B40A
 10
140.771
 20
596.989
 30
0.000000
  70
    32
  0
VERTEX
  8
0
  5
B40B
 10
140.734
 20
597.061
 30
0.000000
  70
    32
  0
VERTEX
  8
0
  5
B40C
 10
140.695
 20
597.131
 30
0.000000
  70
    32
  0
VERTEX
  8
0
  5
B40D
 10
140.654
 20
597.202
 30
0.000000
  70
    32
  0
VERTEX
  8
0
  5
B40E
 10
140.610
 20
597.272
 30
0.000000
  70
    32
  0
VERTEX
  8
0
  5
B40F
 10
140.565
 20
597.341
 30
0.000000
  70
    32
  0
VERTEX
  8
0
  5
B410
 10
140.517
 20
597.410
 30
0.000000
  70
    32
  0
VERTEX
  8
0
  5
B411
 10
140.468
 20
597.478
 30
0.000000
  70
    32
  0
VERTEX
  8
0
  5
B412
 10
140.416
 20
597.546
 30
0.000000
  70
    32
  0
VERTEX
  8
0
  5
B413
 10
140.362
 20
597.613
 30
0.000000
  70
    32
  0
VERTEX
  8
0
  5
B414
 10
140.306
 20
597.680
 30
0.000000
  70
    32
  0
VERTEX
  8
0
  5
B415
 10
140.248
 20
597.745
 30
0.000000
  70
    32
  0
VERTEX
  8
0
  5
B416
 10
140.188
 20
597.811
 30
0.000000
  70
    32
  0
VERTEX
  8
0
  5
B417
 10
140.127
 20
597.875
 30
0.000000
  70
    32
  0
VERTEX
  8
0
  5
B418
 10
140.063
 20
597.939
 30
0.000000
  70
    32
  0
VERTEX
  8
0
  5
B419
 10
139.997
 20
598.002
 30
0.000000
  70
    32
  0
VERTEX
  8
0
  5
B41A
 10
139.929
 20
598.064
 30
0.000000
  70
    32
  0
VERTEX
  8
0
  5
B41B
 10
139.860
 20
598.125
 30
0.000000
  70
    32
  0
VERTEX
  8
0
  5
B41C
 10
139.789
 20
598.186
 30
0.000000
  70
    32
  0
VERTEX
  8
0
  5
B41D
 10
139.715
 20
598.246
 30
0.000000
  70
    32
  0
VERTEX
  8
0
  5
B41E
 10
139.640
 20
598.305
 30
0.000000
  70
    32
  0
VERTEX
  8
0
  5
B41F
 10
139.564
 20
598.363
 30
0.000000
  70
    32
  0
VERTEX
  8
0
  5
B420
 10
139.485
 20
598.420
 30
0.000000
  70
    32
  0
VERTEX
  8
0
  5
B421
 10
139.405
 20
598.476
 30
0.000000
  70
    32
  0
VERTEX
  8
0
  5
B422
 10
139.323
 20
598.531
 30
0.000000
  70
    32
  0
VERTEX
  8
0
  5
B423
 10
139.239
 20
598.586
 30
0.000000
  70
    32
  0
VERTEX
  8
0
  5
B424
 10
139.154
 20
598.639
 30
0.000000
  70
    32
  0
VERTEX
  8
0
  5
B425
 10
139.067
 20
598.691
 30
0.000000
  70
    32
  0
VERTEX
  8
0
  5
B426
 10
138.979
 20
598.743
 30
0.000000
  70
    32
  0
VERTEX
  8
0
  5
B427
 10
138.889
 20
598.793
 30
0.000000
  70
    32
  0
VERTEX
  8
0
  5
B428
 10
138.798
 20
598.843
 30
0.000000
  70
    32
  0
VERTEX
  8
0
  5
B429
 10
138.705
 20
598.891
 30
0.000000
  70
    32
  0
VERTEX
  8
0
  5
B42A
 10
138.610
 20
598.938
 30
0.000000
  70
    32
  0
VERTEX
  8
0
  5
B42B
 10
138.514
 20
598.984
 30
0.000000
  70
    32
  0
VERTEX
  8
0
  5
B42C
 10
138.417
 20
599.029
 30
0.000000
  70
    32
  0
VERTEX
  8
0
  5
B42D
 10
138.319
 20
599.073
 30
0.000000
  70
    32
  0
VERTEX
  8
0
  5
B42E
 10
138.219
 20
599.116
 30
0.000000
  70
    32
  0
VERTEX
  8
0
  5
B42F
 10
138.118
 20
599.157
 30
0.000000
  70
    32
  0
VERTEX
  8
0
  5
B430
 10
138.015
 20
599.197
 30
0.000000
  70
    32
  0
VERTEX
  8
0
  5
B431
 10
137.912
 20
599.237
 30
0.000000
  70
    32
  0
VERTEX
  8
0
  5
B432
 10
137.807
 20
599.275
 30
0.000000
  70
    32
  0
VERTEX
  8
0
  5
B433
 10
137.701
 20
599.311
 30
0.000000
  70
    32
  0
VERTEX
  8
0
  5
B434
 10
137.594
 20
599.347
 30
0.000000
  70
    32
  0
VERTEX
  8
0
  5
B435
 10
137.486
 20
599.381
 30
0.000000
  70
    32
  0
VERTEX
  8
0
  5
B436
 10
137.377
 20
599.414
 30
0.000000
  70
    32
  0
VERTEX
  8
0
  5
B437
 10
137.267
 20
599.446
 30
0.000000
  70
    32
  0
VERTEX
  8
0
  5
B438
 10
137.156
 20
599.477
 30
0.000000
  70
    32
  0
VERTEX
  8
0
  5
B439
 10
137.044
 20
599.506
 30
0.000000
  70
    32
  0
VERTEX
  8
0
  5
B43A
 10
136.931
 20
599.534
 30
0.000000
  70
    32
  0
VERTEX
  8
0
  5
B43B
 10
136.817
 20
599.560
 30
0.000000
  70
    32
  0
VERTEX
  8
0
  5
B43C
 10
136.703
 20
599.586
 30
0.000000
  70
    32
  0
VERTEX
  8
0
  5
B43D
 10
136.588
 20
599.610
 30
0.000000
  70
    32
  0
VERTEX
  8
0
  5
B43E
 10
136.472
 20
599.632
 30
0.000000
  70
    32
  0
VERTEX
  8
0
  5
B43F
 10
136.355
 20
599.654
 30
0.000000
  70
    32
  0
VERTEX
  8
0
  5
B440
 10
136.238
 20
599.674
 30
0.000000
  70
    32
  0
VERTEX
  8
0
  5
B441
 10
136.120
 20
599.692
 30
0.000000
  70
    32
  0
VERTEX
  8
0
  5
B442
 10
136.002
 20
599.710
 30
0.000000
  70
    32
  0
VERTEX
  8
0
  5
B443
 10
135.883
 20
599.725
 30
0.000000
  70
    32
  0
VERTEX
  8
0
  5
B444
 10
135.764
 20
599.740
 30
0.000000
  70
    32
  0
VERTEX
  8
0
  5
B445
 10
135.644
 20
599.753
 30
0.000000
  70
    32
  0
VERTEX
  8
0
  5
B446
 10
135.524
 20
599.765
 30
0.000000
  70
    32
  0
VERTEX
  8
0
  5
B447
 10
135.403
 20
599.775
 30
0.000000
  70
    32
  0
VERTEX
  8
0
  5
B448
 10
135.283
 20
599.784
 30
0.000000
  70
    32
  0
VERTEX
  8
0
  5
B449
 10
135.162
 20
599.792
 30
0.000000
  70
    32
  0
VERTEX
  8
0
  5
B44A
 10
135.041
 20
599.798
 30
0.000000
  70
    32
  0
VERTEX
  8
0
  5
B44B
 10
134.919
 20
599.803
 30
0.000000
  70
    32
  0
VERTEX
  8
0
  5
B44C
 10
134.798
 20
599.806
 30
0.000000
  70
    32
  0
VERTEX
  8
0
  5
B44D
 10
134.676
 20
599.809
 30
0.000000
  70
    32
  0
VERTEX
  8
0
  5
B44E
 10
134.555
 20
599.809
 30
0.000000
  70
    32
  0
VERTEX
  8
0
  5
B44F
 10
134.433
 20
599.808
 30
0.000000
  70
    32
  0
VERTEX
  8
0
  5
B450
 10
134.311
 20
599.806
 30
0.000000
  70
    32
  0
VERTEX
  8
0
  5
B451
 10
134.190
 20
599.803
 30
0.000000
  70
    32
  0
VERTEX
  8
0
  5
B452
 10
134.069
 20
599.798
 30
0.000000
  70
    32
  0
VERTEX
  8
0
  5
B453
 10
133.947
 20
599.791
 30
0.000000
  70
    32
  0
VERTEX
  8
0
  5
B454
 10
133.826
 20
599.784
 30
0.000000
  70
    32
  0
VERTEX
  8
0
  5
B455
 10
133.706
 20
599.774
 30
0.000000
  70
    32
  0
VERTEX
  8
0
  5
B456
 10
133.585
 20
599.764
 30
0.000000
  70
    32
  0
VERTEX
  8
0
  5
B457
 10
133.465
 20
599.752
 30
0.000000
  70
    32
  0
VERTEX
  8
0
  5
B458
 10
133.346
 20
599.739
 30
0.000000
  70
    32
  0
VERTEX
  8
0
  5
B459
 10
133.226
 20
599.724
 30
0.000000
  70
    32
  0
VERTEX
  8
0
  5
B45A
 10
133.108
 20
599.708
 30
0.000000
  70
    32
  0
VERTEX
  8
0
  5
B45B
 10
132.989
 20
599.691
 30
0.000000
  70
    32
  0
VERTEX
  8
0
  5
B45C
 10
132.872
 20
599.672
 30
0.000000
  70
    32
  0
VERTEX
  8
0
  5
B45D
 10
132.754
 20
599.652
 30
0.000000
  70
    32
  0
VERTEX
  8
0
  5
B45E
 10
132.638
 20
599.630
 30
0.000000
  70
    32
  0
VERTEX
  8
0
  5
B45F
 10
132.522
 20
599.607
 30
0.000000
  70
    32
  0
VERTEX
  8
0
  5
B460
 10
132.407
 20
599.583
 30
0.000000
  70
    32
  0
VERTEX
  8
0
  5
B461
 10
132.293
 20
599.558
 30
0.000000
  70
    32
  0
VERTEX
  8
0
  5
B462
 10
132.179
 20
599.531
 30
0.000000
  70
    32
  0
VERTEX
  8
0
  5
B463
 10
132.066
 20
599.503
 30
0.000000
  70
    32
  0
VERTEX
  8
0
  5
B464
 10
131.955
 20
599.474
 30
0.000000
  70
    32
  0
VERTEX
  8
0
  5
B465
 10
131.844
 20
599.443
 30
0.000000
  70
    32
  0
VERTEX
  8
0
  5
B466
 10
131.734
 20
599.411
 30
0.000000
  70
    32
  0
VERTEX
  8
0
  5
B467
 10
131.625
 20
599.378
 30
0.000000
  70
    32
  0
VERTEX
  8
0
  5
B468
 10
131.517
 20
599.343
 30
0.000000
  70
    32
  0
VERTEX
  8
0
  5
B469
 10
131.410
 20
599.308
 30
0.000000
  70
    32
  0
VERTEX
  8
0
  5
B46A
 10
131.304
 20
599.271
 30
0.000000
  70
    32
  0
VERTEX
  8
0
  5
B46B
 10
131.199
 20
599.233
 30
0.000000
  70
    32
  0
VERTEX
  8
0
  5
B46C
 10
131.096
 20
599.193
 30
0.000000
  70
    32
  0
VERTEX
  8
0
  5
B46D
 10
130.993
 20
599.153
 30
0.000000
  70
    32
  0
VERTEX
  8
0
  5
B46E
 10
130.892
 20
599.111
 30
0.000000
  70
    32
  0
VERTEX
  8
0
  5
B46F
 10
130.793
 20
599.069
 30
0.000000
  70
    32
  0
VERTEX
  8
0
  5
B470
 10
130.694
 20
599.025
 30
0.000000
  70
    32
  0
VERTEX
  8
0
  5
B471
 10
130.597
 20
598.980
 30
0.000000
  70
    32
  0
VERTEX
  8
0
  5
B472
 10
130.501
 20
598.933
 30
0.000000
  70
    32
  0
VERTEX
  8
0
  5
B473
 10
130.407
 20
598.886
 30
0.000000
  70
    32
  0
VERTEX
  8
0
  5
B474
 10
130.314
 20
598.838
 30
0.000000
  70
    32
  0
VERTEX
  8
0
  5
B475
 10
130.223
 20
598.788
 30
0.000000
  70
    32
  0
VERTEX
  8
0
  5
B476
 10
130.133
 20
598.738
 30
0.000000
  70
    32
  0
VERTEX
  8
0
  5
B477
 10
130.045
 20
598.686
 30
0.000000
  70
    32
  0
VERTEX
  8
0
  5
B478
 10
129.958
 20
598.634
 30
0.000000
  70
    32
  0
VERTEX
  8
0
  5
B479
 10
129.873
 20
598.580
 30
0.000000
  70
    32
  0
VERTEX
  8
0
  5
B47A
 10
129.790
 20
598.526
 30
0.000000
  70
    32
  0
SEQEND
  8
0
  5
B47B
  0
POLYLINE
  5
8465
  8
0
 10
126.40720840342595
 20
598.56705377818776
 30
0.0
 66
     1
 70
     8
  0
VERTEX
  8
0
  5
B47C
 10
126.407
 20
598.567
 30
0.000000
  70
    32
  0
VERTEX
  8
0
  5
B47D
 10
126.330
 20
598.620
 30
0.000000
  70
    32
  0
VERTEX
  8
0
  5
B47E
 10
126.250
 20
598.673
 30
0.000000
  70
    32
  0
VERTEX
  8
0
  5
B47F
 10
126.170
 20
598.724
 30
0.000000
  70
    32
  0
VERTEX
  8
0
  5
B480
 10
126.088
 20
598.775
 30
0.000000
  70
    32
  0
VERTEX
  8
0
  5
B481
 10
126.004
 20
598.824
 30
0.000000
  70
    32
  0
VERTEX
  8
0
  5
B482
 10
125.920
 20
598.873
 30
0.000000
  70
    32
  0
VERTEX
  8
0
  5
B483
 10
125.833
 20
598.920
 30
0.000000
  70
    32
  0
VERTEX
  8
0
  5
B484
 10
125.746
 20
598.966
 30
0.000000
  70
    32
  0
VERTEX
  8
0
  5
B485
 10
125.657
 20
599.011
 30
0.000000
  70
    32
  0
VERTEX
  8
0
  5
B486
 10
125.567
 20
599.055
 30
0.000000
  70
    32
  0
VERTEX
  8
0
  5
B487
 10
125.476
 20
599.098
 30
0.000000
  70
    32
  0
VERTEX
  8
0
  5
B488
 10
125.384
 20
599.140
 30
0.000000
  70
    32
  0
VERTEX
  8
0
  5
B489
 10
125.290
 20
599.181
 30
0.000000
  70
    32
  0
VERTEX
  8
0
  5
B48A
 10
125.196
 20
599.220
 30
0.000000
  70
    32
  0
VERTEX
  8
0
  5
B48B
 10
125.100
 20
599.259
 30
0.000000
  70
    32
  0
VERTEX
  8
0
  5
B48C
 10
125.003
 20
599.296
 30
0.000000
  70
    32
  0
VERTEX
  8
0
  5
B48D
 10
124.905
 20
599.332
 30
0.000000
  70
    32
  0
VERTEX
  8
0
  5
B48E
 10
124.807
 20
599.366
 30
0.000000
  70
    32
  0
VERTEX
  8
0
  5
B48F
 10
124.707
 20
599.400
 30
0.000000
  70
    32
  0
VERTEX
  8
0
  5
B490
 10
124.606
 20
599.432
 30
0.000000
  70
    32
  0
VERTEX
  8
0
  5
B491
 10
124.505
 20
599.463
 30
0.000000
  70
    32
  0
VERTEX
  8
0
  5
B492
 10
124.403
 20
599.492
 30
0.000000
  70
    32
  0
VERTEX
  8
0
  5
B493
 10
124.299
 20
599.521
 30
0.000000
  70
    32
  0
VERTEX
  8
0
  5
B494
 10
124.195
 20
599.548
 30
0.000000
  70
    32
  0
VERTEX
  8
0
  5
B495
 10
124.091
 20
599.574
 30
0.000000
  70
    32
  0
VERTEX
  8
0
  5
B496
 10
123.985
 20
599.598
 30
0.000000
  70
    32
  0
VERTEX
  8
0
  5
B497
 10
123.879
 20
599.622
 30
0.000000
  70
    32
  0
VERTEX
  8
0
  5
B498
 10
123.773
 20
599.643
 30
0.000000
  70
    32
  0
VERTEX
  8
0
  5
B499
 10
123.665
 20
599.664
 30
0.000000
  70
    32
  0
VERTEX
  8
0
  5
B49A
 10
123.558
 20
599.683
 30
0.000000
  70
    32
  0
VERTEX
  8
0
  5
B49B
 10
123.449
 20
599.701
 30
0.000000
  70
    32
  0
VERTEX
  8
0
  5
B49C
 10
123.340
 20
599.718
 30
0.000000
  70
    32
  0
VERTEX
  8
0
  5
B49D
 10
123.231
 20
599.733
 30
0.000000
  70
    32
  0
VERTEX
  8
0
  5
B49E
 10
123.122
 20
599.747
 30
0.000000
  70
    32
  0
VERTEX
  8
0
  5
B49F
 10
123.012
 20
599.759
 30
0.000000
  70
    32
  0
VERTEX
  8
0
  5
B4A0
 10
122.901
 20
599.770
 30
0.000000
  70
    32
  0
VERTEX
  8
0
  5
B4A1
 10
122.791
 20
599.780
 30
0.000000
  70
    32
  0
VERTEX
  8
0
  5
B4A2
 10
122.680
 20
599.788
 30
0.000000
  70
    32
  0
VERTEX
  8
0
  5
B4A3
 10
122.568
 20
599.795
 30
0.000000
  70
    32
  0
VERTEX
  8
0
  5
B4A4
 10
122.457
 20
599.801
 30
0.000000
  70
    32
  0
VERTEX
  8
0
  5
B4A5
 10
122.346
 20
599.805
 30
0.000000
  70
    32
  0
VERTEX
  8
0
  5
B4A6
 10
122.234
 20
599.808
 30
0.000000
  70
    32
  0
VERTEX
  8
0
  5
B4A7
 10
122.123
 20
599.810
 30
0.000000
  70
    32
  0
VERTEX
  8
0
  5
B4A8
 10
122.011
 20
599.810
 30
0.000000
  70
    32
  0
VERTEX
  8
0
  5
B4A9
 10
121.899
 20
599.808
 30
0.000000
  70
    32
  0
VERTEX
  8
0
  5
B4AA
 10
121.788
 20
599.806
 30
0.000000
  70
    32
  0
VERTEX
  8
0
  5
B4AB
 10
121.676
 20
599.802
 30
0.000000
  70
    32
  0
VERTEX
  8
0
  5
B4AC
 10
121.565
 20
599.796
 30
0.000000
  70
    32
  0
VERTEX
  8
0
  5
B4AD
 10
121.454
 20
599.789
 30
0.000000
  70
    32
  0
VERTEX
  8
0
  5
B4AE
 10
121.343
 20
599.781
 30
0.000000
  70
    32
  0
VERTEX
  8
0
  5
B4AF
 10
121.232
 20
599.771
 30
0.000000
  70
    32
  0
VERTEX
  8
0
  5
B4B0
 10
121.122
 20
599.760
 30
0.000000
  70
    32
  0
VERTEX
  8
0
  5
B4B1
 10
121.012
 20
599.748
 30
0.000000
  70
    32
  0
VERTEX
  8
0
  5
B4B2
 10
120.902
 20
599.734
 30
0.000000
  70
    32
  0
VERTEX
  8
0
  5
B4B3
 10
120.793
 20
599.719
 30
0.000000
  70
    32
  0
VERTEX
  8
0
  5
B4B4
 10
120.684
 20
599.703
 30
0.000000
  70
    32
  0
VERTEX
  8
0
  5
B4B5
 10
120.576
 20
599.685
 30
0.000000
  70
    32
  0
VERTEX
  8
0
  5
B4B6
 10
120.468
 20
599.666
 30
0.000000
  70
    32
  0
VERTEX
  8
0
  5
B4B7
 10
120.360
 20
599.646
 30
0.000000
  70
    32
  0
VERTEX
  8
0
  5
B4B8
 10
120.254
 20
599.624
 30
0.000000
  70
    32
  0
VERTEX
  8
0
  5
B4B9
 10
120.148
 20
599.601
 30
0.000000
  70
    32
  0
VERTEX
  8
0
  5
B4BA
 10
120.042
 20
599.577
 30
0.000000
  70
    32
  0
VERTEX
  8
0
  5
B4BB
 10
119.937
 20
599.551
 30
0.000000
  70
    32
  0
VERTEX
  8
0
  5
B4BC
 10
119.833
 20
599.524
 30
0.000000
  70
    32
  0
VERTEX
  8
0
  5
B4BD
 10
119.730
 20
599.496
 30
0.000000
  70
    32
  0
VERTEX
  8
0
  5
B4BE
 10
119.628
 20
599.466
 30
0.000000
  70
    32
  0
VERTEX
  8
0
  5
B4BF
 10
119.526
 20
599.435
 30
0.000000
  70
    32
  0
VERTEX
  8
0
  5
B4C0
 10
119.425
 20
599.403
 30
0.000000
  70
    32
  0
VERTEX
  8
0
  5
B4C1
 10
119.326
 20
599.370
 30
0.000000
  70
    32
  0
VERTEX
  8
0
  5
B4C2
 10
119.227
 20
599.335
 30
0.000000
  70
    32
  0
VERTEX
  8
0
  5
B4C3
 10
119.129
 20
599.300
 30
0.000000
  70
    32
  0
VERTEX
  8
0
  5
B4C4
 10
119.032
 20
599.263
 30
0.000000
  70
    32
  0
VERTEX
  8
0
  5
B4C5
 10
118.936
 20
599.225
 30
0.000000
  70
    32
  0
VERTEX
  8
0
  5
B4C6
 10
118.841
 20
599.185
 30
0.000000
  70
    32
  0
VERTEX
  8
0
  5
B4C7
 10
118.748
 20
599.145
 30
0.000000
  70
    32
  0
VERTEX
  8
0
  5
B4C8
 10
118.655
 20
599.103
 30
0.000000
  70
    32
  0
VERTEX
  8
0
  5
B4C9
 10
118.564
 20
599.060
 30
0.000000
  70
    32
  0
VERTEX
  8
0
  5
B4CA
 10
118.474
 20
599.016
 30
0.000000
  70
    32
  0
VERTEX
  8
0
  5
B4CB
 10
118.385
 20
598.971
 30
0.000000
  70
    32
  0
VERTEX
  8
0
  5
B4CC
 10
118.298
 20
598.925
 30
0.000000
  70
    32
  0
VERTEX
  8
0
  5
B4CD
 10
118.211
 20
598.878
 30
0.000000
  70
    32
  0
VERTEX
  8
0
  5
B4CE
 10
118.126
 20
598.830
 30
0.000000
  70
    32
  0
VERTEX
  8
0
  5
B4CF
 10
118.043
 20
598.780
 30
0.000000
  70
    32
  0
VERTEX
  8
0
  5
B4D0
 10
117.961
 20
598.730
 30
0.000000
  70
    32
  0
VERTEX
  8
0
  5
B4D1
 10
117.880
 20
598.679
 30
0.000000
  70
    32
  0
VERTEX
  8
0
  5
B4D2
 10
117.800
 20
598.626
 30
0.000000
  70
    32
  0
VERTEX
  8
0
  5
B4D3
 10
117.723
 20
598.573
 30
0.000000
  70
    32
  0
VERTEX
  8
0
  5
B4D4
 10
117.646
 20
598.519
 30
0.000000
  70
    32
  0
VERTEX
  8
0
  5
B4D5
 10
117.571
 20
598.464
 30
0.000000
  70
    32
  0
VERTEX
  8
0
  5
B4D6
 10
117.498
 20
598.408
 30
0.000000
  70
    32
  0
VERTEX
  8
0
  5
B4D7
 10
117.426
 20
598.351
 30
0.000000
  70
    32
  0
VERTEX
  8
0
  5
B4D8
 10
117.356
 20
598.293
 30
0.000000
  70
    32
  0
VERTEX
  8
0
  5
B4D9
 10
117.288
 20
598.234
 30
0.000000
  70
    32
  0
VERTEX
  8
0
  5
B4DA
 10
117.221
 20
598.174
 30
0.000000
  70
    32
  0
VERTEX
  8
0
  5
B4DB
 10
117.156
 20
598.114
 30
0.000000
  70
    32
  0
VERTEX
  8
0
  5
B4DC
 10
117.092
 20
598.053
 30
0.000000
  70
    32
  0
VERTEX
  8
0
  5
B4DD
 10
117.031
 20
597.991
 30
0.000000
  70
    32
  0
VERTEX
  8
0
  5
B4DE
 10
116.971
 20
597.928
 30
0.000000
  70
    32
  0
VERTEX
  8
0
  5
B4DF
 10
116.913
 20
597.864
 30
0.000000
  70
    32
  0
VERTEX
  8
0
  5
B4E0
 10
116.856
 20
597.800
 30
0.000000
  70
    32
  0
VERTEX
  8
0
  5
B4E1
 10
116.802
 20
597.735
 30
0.000000
  70
    32
  0
VERTEX
  8
0
  5
B4E2
 10
116.749
 20
597.670
 30
0.000000
  70
    32
  0
VERTEX
  8
0
  5
B4E3
 10
116.698
 20
597.604
 30
0.000000
  70
    32
  0
VERTEX
  8
0
  5
B4E4
 10
116.649
 20
597.537
 30
0.000000
  70
    32
  0
VERTEX
  8
0
  5
B4E5
 10
116.601
 20
597.469
 30
0.000000
  70
    32
  0
VERTEX
  8
0
  5
B4E6
 10
116.556
 20
597.401
 30
0.000000
  70
    32
  0
VERTEX
  8
0
  5
B4E7
 10
116.513
 20
597.333
 30
0.000000
  70
    32
  0
VERTEX
  8
0
  5
B4E8
 10
116.471
 20
597.264
 30
0.000000
  70
    32
  0
VERTEX
  8
0
  5
B4E9
 10
116.431
 20
597.194
 30
0.000000
  70
    32
  0
VERTEX
  8
0
  5
B4EA
 10
116.394
 20
597.124
 30
0.000000
  70
    32
  0
VERTEX
  8
0
  5
B4EB
 10
116.358
 20
597.054
 30
0.000000
  70
    32
  0
VERTEX
  8
0
  5
B4EC
 10
116.324
 20
596.983
 30
0.000000
  70
    32
  0
VERTEX
  8
0
  5
B4ED
 10
116.293
 20
596.911
 30
0.000000
  70
    32
  0
VERTEX
  8
0
  5
B4EE
 10
116.263
 20
596.840
 30
0.000000
  70
    32
  0
VERTEX
  8
0
  5
B4EF
 10
116.235
 20
596.768
 30
0.000000
  70
    32
  0
VERTEX
  8
0
  5
B4F0
 10
116.209
 20
596.695
 30
0.000000
  70
    32
  0
VERTEX
  8
0
  5
B4F1
 10
116.186
 20
596.623
 30
0.000000
  70
    32
  0
VERTEX
  8
0
  5
B4F2
 10
116.164
 20
596.550
 30
0.000000
  70
    32
  0
VERTEX
  8
0
  5
B4F3
 10
116.144
 20
596.476
 30
0.000000
  70
    32
  0
VERTEX
  8
0
  5
B4F4
 10
116.127
 20
596.403
 30
0.000000
  70
    32
  0
VERTEX
  8
0
  5
B4F5
 10
116.111
 20
596.329
 30
0.000000
  70
    32
  0
VERTEX
  8
0
  5
B4F6
 10
116.098
 20
596.255
 30
0.000000
  70
    32
  0
VERTEX
  8
0
  5
B4F7
 10
116.086
 20
596.181
 30
0.000000
  70
    32
  0
VERTEX
  8
0
  5
B4F8
 10
116.077
 20
596.107
 30
0.000000
  70
    32
  0
VERTEX
  8
0
  5
B4F9
 10
116.070
 20
596.033
 30
0.000000
  70
    32
  0
VERTEX
  8
0
  5
B4FA
 10
116.065
 20
595.959
 30
0.000000
  70
    32
  0
VERTEX
  8
0
  5
B4FB
 10
116.062
 20
595.884
 30
0.000000
  70
    32
  0
VERTEX
  8
0
  5
B4FC
 10
116.061
 20
595.810
 30
0.000000
  70
    32
  0
SEQEND
  8
0
  5
B4FD
  0
ARC
  5
8466
  8
0
 10
128.12863383266219
 20
601.02402233549117
 30
0.0
 40
3.0
 50
234.9837682940298
 51
303.62354293436641
  0
POLYLINE
  5
8467
  8
0
 10
125.49800368136457
 20
100.53030343701784
 30
0.0
 66
     1
 70
     8
  0
VERTEX
  8
0
  5
B4FE
 10
125.498
 20
100.530
 30
0.000000
  70
    32
  0
VERTEX
  8
0
  5
B4FF
 10
125.414
 20
100.492
 30
0.000000
  70
    32
  0
VERTEX
  8
0
  5
B500
 10
125.328
 20
100.454
 30
0.000000
  70
    32
  0
VERTEX
  8
0
  5
B501
 10
125.242
 20
100.417
 30
0.000000
  70
    32
  0
VERTEX
  8
0
  5
B502
 10
125.155
 20
100.382
 30
0.000000
  70
    32
  0
VERTEX
  8
0
  5
B503
 10
125.067
 20
100.347
 30
0.000000
  70
    32
  0
VERTEX
  8
0
  5
B504
 10
124.978
 20
100.314
 30
0.000000
  70
    32
  0
VERTEX
  8
0
  5
B505
 10
124.888
 20
100.281
 30
0.000000
  70
    32
  0
VERTEX
  8
0
  5
B506
 10
124.798
 20
100.249
 30
0.000000
  70
    32
  0
VERTEX
  8
0
  5
B507
 10
124.706
 20
100.219
 30
0.000000
  70
    32
  0
VERTEX
  8
0
  5
B508
 10
124.614
 20
100.189
 30
0.000000
  70
    32
  0
VERTEX
  8
0
  5
B509
 10
124.521
 20
100.161
 30
0.000000
  70
    32
  0
VERTEX
  8
0
  5
B50A
 10
124.428
 20
100.133
 30
0.000000
  70
    32
  0
VERTEX
  8
0
  5
B50B
 10
124.334
 20
100.107
 30
0.000000
  70
    32
  0
VERTEX
  8
0
  5
B50C
 10
124.239
 20
100.082
 30
0.000000
  70
    32
  0
VERTEX
  8
0
  5
B50D
 10
124.143
 20
100.057
 30
0.000000
  70
    32
  0
VERTEX
  8
0
  5
B50E
 10
124.047
 20
100.034
 30
0.000000
  70
    32
  0
VERTEX
  8
0
  5
B50F
 10
123.950
 20
100.012
 30
0.000000
  70
    32
  0
VERTEX
  8
0
  5
B510
 10
123.853
 20
99.9914
 30
0.000000
  70
    32
  0
VERTEX
  8
0
  5
B511
 10
123.755
 20
99.9716
 30
0.000000
  70
    32
  0
VERTEX
  8
0
  5
B512
 10
123.657
 20
99.9529
 30
0.000000
  70
    32
  0
VERTEX
  8
0
  5
B513
 10
123.558
 20
99.9353
 30
0.000000
  70
    32
  0
VERTEX
  8
0
  5
B514
 10
123.459
 20
99.9189
 30
0.000000
  70
    32
  0
VERTEX
  8
0
  5
B515
 10
123.359
 20
99.9036
 30
0.000000
  70
    32
  0
VERTEX
  8
0
  5
B516
 10
123.259
 20
99.8894
 30
0.000000
  70
    32
  0
VERTEX
  8
0
  5
B517
 10
123.159
 20
99.8763
 30
0.000000
  70
    32
  0
VERTEX
  8
0
  5
B518
 10
123.058
 20
99.8644
 30
0.000000
  70
    32
  0
VERTEX
  8
0
  5
B519
 10
122.957
 20
99.8537
 30
0.000000
  70
    32
  0
VERTEX
  8
0
  5
B51A
 10
122.856
 20
99.8441
 30
0.000000
  70
    32
  0
VERTEX
  8
0
  5
B51B
 10
122.754
 20
99.8356
 30
0.000000
  70
    32
  0
VERTEX
  8
0
  5
B51C
 10
122.653
 20
99.8283
 30
0.000000
  70
    32
  0
VERTEX
  8
0
  5
B51D
 10
122.551
 20
99.8221
 30
0.000000
  70
    32
  0
VERTEX
  8
0
  5
B51E
 10
122.449
 20
99.8172
 30
0.000000
  70
    32
  0
VERTEX
  8
0
  5
B51F
 10
122.347
 20
99.8133
 30
0.000000
  70
    32
  0
VERTEX
  8
0
  5
B520
 10
122.245
 20
99.8107
 30
0.000000
  70
    32
  0
VERTEX
  8
0
  5
B521
 10
122.142
 20
99.8091
 30
0.000000
  70
    32
  0
VERTEX
  8
0
  5
B522
 10
122.040
 20
99.8088
 30
0.000000
  70
    32
  0
VERTEX
  8
0
  5
B523
 10
121.938
 20
99.8096
 30
0.000000
  70
    32
  0
VERTEX
  8
0
  5
B524
 10
121.836
 20
99.8116
 30
0.000000
  70
    32
  0
VERTEX
  8
0
  5
B525
 10
121.734
 20
99.8147
 30
0.000000
  70
    32
  0
VERTEX
  8
0
  5
B526
 10
121.632
 20
99.8190
 30
0.000000
  70
    32
  0
VERTEX
  8
0
  5
B527
 10
121.530
 20
99.8244
 30
0.000000
  70
    32
  0
VERTEX
  8
0
  5
B528
 10
121.428
 20
99.8311
 30
0.000000
  70
    32
  0
VERTEX
  8
0
  5
B529
 10
121.326
 20
99.8388
 30
0.000000
  70
    32
  0
VERTEX
  8
0
  5
B52A
 10
121.225
 20
99.8477
 30
0.000000
  70
    32
  0
VERTEX
  8
0
  5
B52B
 10
121.124
 20
99.8578
 30
0.000000
  70
    32
  0
VERTEX
  8
0
  5
B52C
 10
121.023
 20
99.8690
 30
0.000000
  70
    32
  0
VERTEX
  8
0
  5
B52D
 10
120.923
 20
99.8814
 30
0.000000
  70
    32
  0
VERTEX
  8
0
  5
B52E
 10
120.822
 20
99.8949
 30
0.000000
  70
    32
  0
VERTEX
  8
0
  5
B52F
 10
120.723
 20
99.9095
 30
0.000000
  70
    32
  0
VERTEX
  8
0
  5
B530
 10
120.623
 20
99.9253
 30
0.000000
  70
    32
  0
VERTEX
  8
0
  5
B531
 10
120.524
 20
99.9422
 30
0.000000
  70
    32
  0
VERTEX
  8
0
  5
B532
 10
120.425
 20
99.9602
 30
0.000000
  70
    32
  0
VERTEX
  8
0
  5
B533
 10
120.327
 20
99.9793
 30
0.000000
  70
    32
  0
VERTEX
  8
0
  5
B534
 10
120.230
 20
99.9995
 30
0.000000
  70
    32
  0
VERTEX
  8
0
  5
B535
 10
120.133
 20
100.021
 30
0.000000
  70
    32
  0
VERTEX
  8
0
  5
B536
 10
120.036
 20
100.043
 30
0.000000
  70
    32
  0
VERTEX
  8
0
  5
B537
 10
119.940
 20
100.067
 30
0.000000
  70
    32
  0
VERTEX
  8
0
  5
B538
 10
119.845
 20
100.092
 30
0.000000
  70
    32
  0
VERTEX
  8
0
  5
B539
 10
119.750
 20
100.117
 30
0.000000
  70
    32
  0
VERTEX
  8
0
  5
B53A
 10
119.656
 20
100.144
 30
0.000000
  70
    32
  0
VERTEX
  8
0
  5
B53B
 10
119.563
 20
100.172
 30
0.000000
  70
    32
  0
VERTEX
  8
0
  5
B53C
 10
119.470
 20
100.201
 30
0.000000
  70
    32
  0
VERTEX
  8
0
  5
B53D
 10
119.378
 20
100.231
 30
0.000000
  70
    32
  0
VERTEX
  8
0
  5
B53E
 10
119.287
 20
100.262
 30
0.000000
  70
    32
  0
VERTEX
  8
0
  5
B53F
 10
119.197
 20
100.294
 30
0.000000
  70
    32
  0
VERTEX
  8
0
  5
B540
 10
119.108
 20
100.327
 30
0.000000
  70
    32
  0
VERTEX
  8
0
  5
B541
 10
119.019
 20
100.361
 30
0.000000
  70
    32
  0
VERTEX
  8
0
  5
B542
 10
118.931
 20
100.396
 30
0.000000
  70
    32
  0
VERTEX
  8
0
  5
B543
 10
118.845
 20
100.432
 30
0.000000
  70
    32
  0
VERTEX
  8
0
  5
B544
 10
118.759
 20
100.469
 30
0.000000
  70
    32
  0
VERTEX
  8
0
  5
B545
 10
118.674
 20
100.507
 30
0.000000
  70
    32
  0
VERTEX
  8
0
  5
B546
 10
118.590
 20
100.546
 30
0.000000
  70
    32
  0
VERTEX
  8
0
  5
B547
 10
118.507
 20
100.586
 30
0.000000
  70
    32
  0
VERTEX
  8
0
  5
B548
 10
118.425
 20
100.627
 30
0.000000
  70
    32
  0
VERTEX
  8
0
  5
B549
 10
118.344
 20
100.668
 30
0.000000
  70
    32
  0
VERTEX
  8
0
  5
B54A
 10
118.265
 20
100.711
 30
0.000000
  70
    32
  0
VERTEX
  8
0
  5
B54B
 10
118.186
 20
100.755
 30
0.000000
  70
    32
  0
VERTEX
  8
0
  5
B54C
 10
118.109
 20
100.799
 30
0.000000
  70
    32
  0
VERTEX
  8
0
  5
B54D
 10
118.032
 20
100.844
 30
0.000000
  70
    32
  0
VERTEX
  8
0
  5
B54E
 10
117.957
 20
100.891
 30
0.000000
  70
    32
  0
VERTEX
  8
0
  5
B54F
 10
117.883
 20
100.938
 30
0.000000
  70
    32
  0
VERTEX
  8
0
  5
B550
 10
117.810
 20
100.985
 30
0.000000
  70
    32
  0
VERTEX
  8
0
  5
B551
 10
117.739
 20
101.034
 30
0.000000
  70
    32
  0
VERTEX
  8
0
  5
B552
 10
117.668
 20
101.084
 30
0.000000
  70
    32
  0
VERTEX
  8
0
  5
B553
 10
117.599
 20
101.134
 30
0.000000
  70
    32
  0
VERTEX
  8
0
  5
B554
 10
117.532
 20
101.185
 30
0.000000
  70
    32
  0
VERTEX
  8
0
  5
B555
 10
117.465
 20
101.237
 30
0.000000
  70
    32
  0
VERTEX
  8
0
  5
B556
 10
117.400
 20
101.289
 30
0.000000
  70
    32
  0
VERTEX
  8
0
  5
B557
 10
117.336
 20
101.343
 30
0.000000
  70
    32
  0
VERTEX
  8
0
  5
B558
 10
117.274
 20
101.397
 30
0.000000
  70
    32
  0
VERTEX
  8
0
  5
B559
 10
117.213
 20
101.451
 30
0.000000
  70
    32
  0
VERTEX
  8
0
  5
B55A
 10
117.154
 20
101.507
 30
0.000000
  70
    32
  0
VERTEX
  8
0
  5
B55B
 10
117.096
 20
101.563
 30
0.000000
  70
    32
  0
VERTEX
  8
0
  5
B55C
 10
117.039
 20
101.620
 30
0.000000
  70
    32
  0
VERTEX
  8
0
  5
B55D
 10
116.984
 20
101.677
 30
0.000000
  70
    32
  0
VERTEX
  8
0
  5
B55E
 10
116.930
 20
101.735
 30
0.000000
  70
    32
  0
VERTEX
  8
0
  5
B55F
 10
116.878
 20
101.794
 30
0.000000
  70
    32
  0
VERTEX
  8
0
  5
B560
 10
116.827
 20
101.853
 30
0.000000
  70
    32
  0
VERTEX
  8
0
  5
B561
 10
116.778
 20
101.912
 30
0.000000
  70
    32
  0
VERTEX
  8
0
  5
B562
 10
116.730
 20
101.973
 30
0.000000
  70
    32
  0
VERTEX
  8
0
  5
B563
 10
116.684
 20
102.034
 30
0.000000
  70
    32
  0
VERTEX
  8
0
  5
B564
 10
116.639
 20
102.095
 30
0.000000
  70
    32
  0
VERTEX
  8
0
  5
B565
 10
116.596
 20
102.157
 30
0.000000
  70
    32
  0
VERTEX
  8
0
  5
B566
 10
116.555
 20
102.219
 30
0.000000
  70
    32
  0
VERTEX
  8
0
  5
B567
 10
116.515
 20
102.282
 30
0.000000
  70
    32
  0
VERTEX
  8
0
  5
B568
 10
116.477
 20
102.345
 30
0.000000
  70
    32
  0
VERTEX
  8
0
  5
B569
 10
116.440
 20
102.409
 30
0.000000
  70
    32
  0
VERTEX
  8
0
  5
B56A
 10
116.405
 20
102.473
 30
0.000000
  70
    32
  0
VERTEX
  8
0
  5
B56B
 10
116.372
 20
102.537
 30
0.000000
  70
    32
  0
VERTEX
  8
0
  5
B56C
 10
116.340
 20
102.602
 30
0.000000
  70
    32
  0
VERTEX
  8
0
  5
B56D
 10
116.310
 20
102.667
 30
0.000000
  70
    32
  0
VERTEX
  8
0
  5
B56E
 10
116.282
 20
102.733
 30
0.000000
  70
    32
  0
VERTEX
  8
0
  5
B56F
 10
116.255
 20
102.798
 30
0.000000
  70
    32
  0
VERTEX
  8
0
  5
B570
 10
116.230
 20
102.865
 30
0.000000
  70
    32
  0
VERTEX
  8
0
  5
B571
 10
116.207
 20
102.931
 30
0.000000
  70
    32
  0
VERTEX
  8
0
  5
B572
 10
116.185
 20
102.997
 30
0.000000
  70
    32
  0
VERTEX
  8
0
  5
B573
 10
116.165
 20
103.064
 30
0.000000
  70
    32
  0
VERTEX
  8
0
  5
B574
 10
116.147
 20
103.131
 30
0.000000
  70
    32
  0
VERTEX
  8
0
  5
B575
 10
116.131
 20
103.199
 30
0.000000
  70
    32
  0
VERTEX
  8
0
  5
B576
 10
116.116
 20
103.266
 30
0.000000
  70
    32
  0
VERTEX
  8
0
  5
B577
 10
116.103
 20
103.334
 30
0.000000
  70
    32
  0
VERTEX
  8
0
  5
B578
 10
116.092
 20
103.401
 30
0.000000
  70
    32
  0
VERTEX
  8
0
  5
B579
 10
116.082
 20
103.469
 30
0.000000
  70
    32
  0
VERTEX
  8
0
  5
B57A
 10
116.074
 20
103.537
 30
0.000000
  70
    32
  0
VERTEX
  8
0
  5
B57B
 10
116.068
 20
103.605
 30
0.000000
  70
    32
  0
VERTEX
  8
0
  5
B57C
 10
116.064
 20
103.673
 30
0.000000
  70
    32
  0
VERTEX
  8
0
  5
B57D
 10
116.061
 20
103.742
 30
0.000000
  70
    32
  0
VERTEX
  8
0
  5
B57E
 10
116.061
 20
103.810
 30
0.000000
  70
    32
  0
SEQEND
  8
0
  5
B57F
  0
LINE
  5
8468
  8
0
 10
79.06052269175143
 20
595.80973430069662
 30
0.0
 11
79.060522691758251
 21
103.8097343006966
 31
0.0
  0
LINE
  5
8469
  8
0
 10
89.06052269175143
 20
598.17950223821288
 30
0.0
 11
89.060522691761889
 21
101.5417851082647
 31
0.0
  0
LINE
  5
846A
  8
0
 10
96.060522691751444
 20
599.75378748943047
 30
0.0
 11
96.060522691761875
 21
99.864521501534909
 31
0.0
  0
POLYLINE
  5
846B
  8
0
 10
90.858344921276469
 20
598.66488185363312
 30
0.0
 66
     1
 70
     8
  0
VERTEX
  8
0
  5
B580
 10
90.8583
 20
598.665
 30
0.000000
  70
    32
  0
VERTEX
  8
0
  5
B581
 10
90.9376
 20
598.716
 30
0.000000
  70
    32
  0
VERTEX
  8
0
  5
B582
 10
91.0182
 20
598.766
 30
0.000000
  70
    32
  0
VERTEX
  8
0
  5
B583
 10
91.1001
 20
598.815
 30
0.000000
  70
    32
  0
VERTEX
  8
0
  5
B584
 10
91.1834
 20
598.862
 30
0.000000
  70
    32
  0
VERTEX
  8
0
  5
B585
 10
91.2680
 20
598.909
 30
0.000000
  70
    32
  0
VERTEX
  8
0
  5
B586
 10
91.3539
 20
598.955
 30
0.000000
  70
    32
  0
VERTEX
  8
0
  5
B587
 10
91.4410
 20
599.000
 30
0.000000
  70
    32
  0
VERTEX
  8
0
  5
B588
 10
91.5294
 20
599.044
 30
0.000000
  70
    32
  0
VERTEX
  8
0
  5
B589
 10
91.6189
 20
599.086
 30
0.000000
  70
    32
  0
VERTEX
  8
0
  5
B58A
 10
91.7096
 20
599.128
 30
0.000000
  70
    32
  0
VERTEX
  8
0
  5
B58B
 10
91.8014
 20
599.168
 30
0.000000
  70
    32
  0
VERTEX
  8
0
  5
B58C
 10
91.8943
 20
599.207
 30
0.000000
  70
    32
  0
VERTEX
  8
0
  5
B58D
 10
91.9882
 20
599.246
 30
0.000000
  70
    32
  0
VERTEX
  8
0
  5
B58E
 10
92.0832
 20
599.283
 30
0.000000
  70
    32
  0
VERTEX
  8
0
  5
B58F
 10
92.1792
 20
599.318
 30
0.000000
  70
    32
  0
VERTEX
  8
0
  5
B590
 10
92.2762
 20
599.353
 30
0.000000
  70
    32
  0
VERTEX
  8
0
  5
B591
 10
92.3741
 20
599.386
 30
0.000000
  70
    32
  0
VERTEX
  8
0
  5
B592
 10
92.4729
 20
599.419
 30
0.000000
  70
    32
  0
VERTEX
  8
0
  5
B593
 10
92.5726
 20
599.450
 30
0.000000
  70
    32
  0
VERTEX
  8
0
  5
B594
 10
92.6731
 20
599.479
 30
0.000000
  70
    32
  0
VERTEX
  8
0
  5
B595
 10
92.7744
 20
599.508
 30
0.000000
  70
    32
  0
VERTEX
  8
0
  5
B596
 10
92.8765
 20
599.535
 30
0.000000
  70
    32
  0
VERTEX
  8
0
  5
B597
 10
92.9793
 20
599.561
 30
0.000000
  70
    32
  0
VERTEX
  8
0
  5
B598
 10
93.0828
 20
599.586
 30
0.000000
  70
    32
  0
VERTEX
  8
0
  5
B599
 10
93.1870
 20
599.610
 30
0.000000
  70
    32
  0
VERTEX
  8
0
  5
B59A
 10
93.2918
 20
599.632
 30
0.000000
  70
    32
  0
VERTEX
  8
0
  5
B59B
 10
93.3972
 20
599.653
 30
0.000000
  70
    32
  0
VERTEX
  8
0
  5
B59C
 10
93.5032
 20
599.673
 30
0.000000
  70
    32
  0
VERTEX
  8
0
  5
B59D
 10
93.6097
 20
599.691
 30
0.000000
  70
    32
  0
VERTEX
  8
0
  5
B59E
 10
93.7166
 20
599.708
 30
0.000000
  70
    32
  0
VERTEX
  8
0
  5
B59F
 10
93.8241
 20
599.724
 30
0.000000
  70
    32
  0
VERTEX
  8
0
  5
B5A0
 10
93.9319
 20
599.738
 30
0.000000
  70
    32
  0
VERTEX
  8
0
  5
B5A1
 10
94.0401
 20
599.751
 30
0.000000
  70
    32
  0
VERTEX
  8
0
  5
B5A2
 10
94.1487
 20
599.763
 30
0.000000
  70
    32
  0
VERTEX
  8
0
  5
B5A3
 10
94.2576
 20
599.774
 30
0.000000
  70
    32
  0
VERTEX
  8
0
  5
B5A4
 10
94.3667
 20
599.783
 30
0.000000
  70
    32
  0
VERTEX
  8
0
  5
B5A5
 10
94.4761
 20
599.791
 30
0.000000
  70
    32
  0
VERTEX
  8
0
  5
B5A6
 10
94.5856
 20
599.797
 30
0.000000
  70
    32
  0
VERTEX
  8
0
  5
B5A7
 10
94.6954
 20
599.802
 30
0.000000
  70
    32
  0
VERTEX
  8
0
  5
B5A8
 10
94.8052
 20
599.806
 30
0.000000
  70
    32
  0
VERTEX
  8
0
  5
B5A9
 10
94.9152
 20
599.809
 30
0.000000
  70
    32
  0
VERTEX
  8
0
  5
B5AA
 10
95.0252
 20
599.810
 30
0.000000
  70
    32
  0
VERTEX
  8
0
  5
B5AB
 10
95.1352
 20
599.809
 30
0.000000
  70
    32
  0
VERTEX
  8
0
  5
B5AC
 10
95.2451
 20
599.808
 30
0.000000
  70
    32
  0
VERTEX
  8
0
  5
B5AD
 10
95.3550
 20
599.805
 30
0.000000
  70
    32
  0
VERTEX
  8
0
  5
B5AE
 10
95.4649
 20
599.801
 30
0.000000
  70
    32
  0
VERTEX
  8
0
  5
B5AF
 10
95.5745
 20
599.795
 30
0.000000
  70
    32
  0
VERTEX
  8
0
  5
B5B0
 10
95.6840
 20
599.788
 30
0.000000
  70
    32
  0
VERTEX
  8
0
  5
B5B1
 10
95.7933
 20
599.780
 30
0.000000
  70
    32
  0
VERTEX
  8
0
  5
B5B2
 10
95.9024
 20
599.770
 30
0.000000
  70
    32
  0
VERTEX
  8
0
  5
B5B3
 10
96.0111
 20
599.759
 30
0.000000
  70
    32
  0
VERTEX
  8
0
  5
B5B4
 10
96.1196
 20
599.747
 30
0.000000
  70
    32
  0
VERTEX
  8
0
  5
B5B5
 10
96.2277
 20
599.733
 30
0.000000
  70
    32
  0
VERTEX
  8
0
  5
B5B6
 10
96.3354
 20
599.718
 30
0.000000
  70
    32
  0
VERTEX
  8
0
  5
B5B7
 10
96.4427
 20
599.702
 30
0.000000
  70
    32
  0
VERTEX
  8
0
  5
B5B8
 10
96.5495
 20
599.685
 30
0.000000
  70
    32
  0
VERTEX
  8
0
  5
B5B9
 10
96.6558
 20
599.666
 30
0.000000
  70
    32
  0
VERTEX
  8
0
  5
B5BA
 10
96.7615
 20
599.646
 30
0.000000
  70
    32
  0
VERTEX
  8
0
  5
B5BB
 10
96.8667
 20
599.624
 30
0.000000
  70
    32
  0
VERTEX
  8
0
  5
B5BC
 10
96.9713
 20
599.601
 30
0.000000
  70
    32
  0
VERTEX
  8
0
  5
B5BD
 10
97.0753
 20
599.577
 30
0.000000
  70
    32
  0
VERTEX
  8
0
  5
B5BE
 10
97.1785
 20
599.552
 30
0.000000
  70
    32
  0
VERTEX
  8
0
  5
B5BF
 10
97.2811
 20
599.526
 30
0.000000
  70
    32
  0
VERTEX
  8
0
  5
B5C0
 10
97.3829
 20
599.498
 30
0.000000
  70
    32
  0
VERTEX
  8
0
  5
B5C1
 10
97.4839
 20
599.469
 30
0.000000
  70
    32
  0
VERTEX
  8
0
  5
B5C2
 10
97.5842
 20
599.439
 30
0.000000
  70
    32
  0
VERTEX
  8
0
  5
B5C3
 10
97.6835
 20
599.407
 30
0.000000
  70
    32
  0
VERTEX
  8
0
  5
B5C4
 10
97.7820
 20
599.375
 30
0.000000
  70
    32
  0
VERTEX
  8
0
  5
B5C5
 10
97.8796
 20
599.341
 30
0.000000
  70
    32
  0
VERTEX
  8
0
  5
B5C6
 10
97.9762
 20
599.306
 30
0.000000
  70
    32
  0
VERTEX
  8
0
  5
B5C7
 10
98.0719
 20
599.269
 30
0.000000
  70
    32
  0
VERTEX
  8
0
  5
B5C8
 10
98.1665
 20
599.232
 30
0.000000
  70
    32
  0
VERTEX
  8
0
  5
B5C9
 10
98.2601
 20
599.194
 30
0.000000
  70
    32
  0
VERTEX
  8
0
  5
B5CA
 10
98.3526
 20
599.154
 30
0.000000
  70
    32
  0
VERTEX
  8
0
  5
B5CB
 10
98.4440
 20
599.113
 30
0.000000
  70
    32
  0
VERTEX
  8
0
  5
B5CC
 10
98.5343
 20
599.071
 30
0.000000
  70
    32
  0
VERTEX
  8
0
  5
B5CD
 10
98.6234
 20
599.028
 30
0.000000
  70
    32
  0
VERTEX
  8
0
  5
B5CE
 10
98.7113
 20
598.984
 30
0.000000
  70
    32
  0
VERTEX
  8
0
  5
B5CF
 10
98.7979
 20
598.939
 30
0.000000
  70
    32
  0
VERTEX
  8
0
  5
B5D0
 10
98.8834
 20
598.893
 30
0.000000
  70
    32
  0
VERTEX
  8
0
  5
B5D1
 10
98.9675
 20
598.845
 30
0.000000
  70
    32
  0
VERTEX
  8
0
  5
B5D2
 10
99.0503
 20
598.797
 30
0.000000
  70
    32
  0
VERTEX
  8
0
  5
B5D3
 10
99.1318
 20
598.748
 30
0.000000
  70
    32
  0
VERTEX
  8
0
  5
B5D4
 10
99.2119
 20
598.698
 30
0.000000
  70
    32
  0
VERTEX
  8
0
  5
B5D5
 10
99.2906
 20
598.646
 30
0.000000
  70
    32
  0
VERTEX
  8
0
  5
B5D6
 10
99.3679
 20
598.594
 30
0.000000
  70
    32
  0
VERTEX
  8
0
  5
B5D7
 10
99.4438
 20
598.541
 30
0.000000
  70
    32
  0
VERTEX
  8
0
  5
B5D8
 10
99.5182
 20
598.487
 30
0.000000
  70
    32
  0
VERTEX
  8
0
  5
B5D9
 10
99.5910
 20
598.432
 30
0.000000
  70
    32
  0
VERTEX
  8
0
  5
B5DA
 10
99.6624
 20
598.376
 30
0.000000
  70
    32
  0
VERTEX
  8
0
  5
B5DB
 10
99.7322
 20
598.320
 30
0.000000
  70
    32
  0
VERTEX
  8
0
  5
B5DC
 10
99.8004
 20
598.262
 30
0.000000
  70
    32
  0
VERTEX
  8
0
  5
B5DD
 10
99.8671
 20
598.204
 30
0.000000
  70
    32
  0
VERTEX
  8
0
  5
B5DE
 10
99.9321
 20
598.145
 30
0.000000
  70
    32
  0
VERTEX
  8
0
  5
B5DF
 10
99.9955
 20
598.085
 30
0.000000
  70
    32
  0
VERTEX
  8
0
  5
B5E0
 10
100.057
 20
598.024
 30
0.000000
  70
    32
  0
VERTEX
  8
0
  5
B5E1
 10
100.117
 20
597.963
 30
0.000000
  70
    32
  0
VERTEX
  8
0
  5
B5E2
 10
100.176
 20
597.901
 30
0.000000
  70
    32
  0
VERTEX
  8
0
  5
B5E3
 10
100.232
 20
597.838
 30
0.000000
  70
    32
  0
VERTEX
  8
0
  5
B5E4
 10
100.287
 20
597.774
 30
0.000000
  70
    32
  0
VERTEX
  8
0
  5
B5E5
 10
100.340
 20
597.710
 30
0.000000
  70
    32
  0
VERTEX
  8
0
  5
B5E6
 10
100.392
 20
597.645
 30
0.000000
  70
    32
  0
VERTEX
  8
0
  5
B5E7
 10
100.441
 20
597.580
 30
0.000000
  70
    32
  0
VERTEX
  8
0
  5
B5E8
 10
100.489
 20
597.514
 30
0.000000
  70
    32
  0
VERTEX
  8
0
  5
B5E9
 10
100.535
 20
597.447
 30
0.000000
  70
    32
  0
VERTEX
  8
0
  5
B5EA
 10
100.579
 20
597.380
 30
0.000000
  70
    32
  0
VERTEX
  8
0
  5
B5EB
 10
100.621
 20
597.312
 30
0.000000
  70
    32
  0
VERTEX
  8
0
  5
B5EC
 10
100.662
 20
597.244
 30
0.000000
  70
    32
  0
VERTEX
  8
0
  5
B5ED
 10
100.700
 20
597.175
 30
0.000000
  70
    32
  0
VERTEX
  8
0
  5
B5EE
 10
100.737
 20
597.106
 30
0.000000
  70
    32
  0
VERTEX
  8
0
  5
B5EF
 10
100.771
 20
597.036
 30
0.000000
  70
    32
  0
VERTEX
  8
0
  5
B5F0
 10
100.804
 20
596.966
 30
0.000000
  70
    32
  0
VERTEX
  8
0
  5
B5F1
 10
100.835
 20
596.896
 30
0.000000
  70
    32
  0
VERTEX
  8
0
  5
B5F2
 10
100.864
 20
596.825
 30
0.000000
  70
    32
  0
VERTEX
  8
0
  5
B5F3
 10
100.891
 20
596.754
 30
0.000000
  70
    32
  0
VERTEX
  8
0
  5
B5F4
 10
100.916
 20
596.683
 30
0.000000
  70
    32
  0
VERTEX
  8
0
  5
B5F5
 10
100.939
 20
596.611
 30
0.000000
  70
    32
  0
VERTEX
  8
0
  5
B5F6
 10
100.960
 20
596.539
 30
0.000000
  70
    32
  0
VERTEX
  8
0
  5
B5F7
 10
100.979
 20
596.467
 30
0.000000
  70
    32
  0
VERTEX
  8
0
  5
B5F8
 10
100.996
 20
596.394
 30
0.000000
  70
    32
  0
VERTEX
  8
0
  5
B5F9
 10
101.011
 20
596.322
 30
0.000000
  70
    32
  0
VERTEX
  8
0
  5
B5FA
 10
101.024
 20
596.249
 30
0.000000
  70
    32
  0
VERTEX
  8
0
  5
B5FB
 10
101.035
 20
596.176
 30
0.000000
  70
    32
  0
VERTEX
  8
0
  5
B5FC
 10
101.044
 20
596.103
 30
0.000000
  70
    32
  0
VERTEX
  8
0
  5
B5FD
 10
101.051
 20
596.030
 30
0.000000
  70
    32
  0
VERTEX
  8
0
  5
B5FE
 10
101.056
 20
595.956
 30
0.000000
  70
    32
  0
VERTEX
  8
0
  5
B5FF
 10
101.060
 20
595.883
 30
0.000000
  70
    32
  0
VERTEX
  8
0
  5
B600
 10
101.061
 20
595.810
 30
0.000000
  70
    32
  0
SEQEND
  8
0
  5
B601
  0
POLYLINE
  5
846C
  8
0
 10
79.06052269175143
 20
595.8097343006965
 30
0.0
 66
     1
 70
     8
  0
VERTEX
  8
0
  5
B602
 10
79.0605
 20
595.810
 30
0.000000
  70
    32
  0
VERTEX
  8
0
  5
B603
 10
79.0613
 20
595.882
 30
0.000000
  70
    32
  0
VERTEX
  8
0
  5
B604
 10
79.0638
 20
595.954
 30
0.000000
  70
    32
  0
VERTEX
  8
0
  5
B605
 10
79.0679
 20
596.026
 30
0.000000
  70
    32
  0
VERTEX
  8
0
  5
B606
 10
79.0736
 20
596.099
 30
0.000000
  70
    32
  0
VERTEX
  8
0
  5
B607
 10
79.0809
 20
596.171
 30
0.000000
  70
    32
  0
VERTEX
  8
0
  5
B608
 10
79.0899
 20
596.243
 30
0.000000
  70
    32
  0
VERTEX
  8
0
  5
B609
 10
79.1005
 20
596.314
 30
0.000000
  70
    32
  0
VERTEX
  8
0
  5
B60A
 10
79.1127
 20
596.386
 30
0.000000
  70
    32
  0
VERTEX
  8
0
  5
B60B
 10
79.1265
 20
596.457
 30
0.000000
  70
    32
  0
VERTEX
  8
0
  5
B60C
 10
79.1420
 20
596.529
 30
0.000000
  70
    32
  0
VERTEX
  8
0
  5
B60D
 10
79.1590
 20
596.600
 30
0.000000
  70
    32
  0
VERTEX
  8
0
  5
B60E
 10
79.1776
 20
596.670
 30
0.000000
  70
    32
  0
VERTEX
  8
0
  5
B60F
 10
79.1979
 20
596.741
 30
0.000000
  70
    32
  0
VERTEX
  8
0
  5
B610
 10
79.2197
 20
596.811
 30
0.000000
  70
    32
  0
VERTEX
  8
0
  5
B611
 10
79.2431
 20
596.881
 30
0.000000
  70
    32
  0
VERTEX
  8
0
  5
B612
 10
79.2681
 20
596.950
 30
0.000000
  70
    32
  0
VERTEX
  8
0
  5
B613
 10
79.2946
 20
597.019
 30
0.000000
  70
    32
  0
VERTEX
  8
0
  5
B614
 10
79.3227
 20
597.088
 30
0.000000
  70
    32
  0
VERTEX
  8
0
  5
B615
 10
79.3524
 20
597.156
 30
0.000000
  70
    32
  0
VERTEX
  8
0
  5
B616
 10
79.3836
 20
597.224
 30
0.000000
  70
    32
  0
VERTEX
  8
0
  5
B617
 10
79.4163
 20
597.292
 30
0.000000
  70
    32
  0
VERTEX
  8
0
  5
B618
 10
79.4505
 20
597.359
 30
0.000000
  70
    32
  0
VERTEX
  8
0
  5
B619
 10
79.4863
 20
597.425
 30
0.000000
  70
    32
  0
VERTEX
  8
0
  5
B61A
 10
79.5235
 20
597.491
 30
0.000000
  70
    32
  0
VERTEX
  8
0
  5
B61B
 10
79.5622
 20
597.556
 30
0.000000
  70
    32
  0
VERTEX
  8
0
  5
B61C
 10
79.6024
 20
597.621
 30
0.000000
  70
    32
  0
VERTEX
  8
0
  5
B61D
 10
79.6440
 20
597.685
 30
0.000000
  70
    32
  0
VERTEX
  8
0
  5
B61E
 10
79.6871
 20
597.749
 30
0.000000
  70
    32
  0
VERTEX
  8
0
  5
B61F
 10
79.7316
 20
597.811
 30
0.000000
  70
    32
  0
VERTEX
  8
0
  5
B620
 10
79.7775
 20
597.874
 30
0.000000
  70
    32
  0
VERTEX
  8
0
  5
B621
 10
79.8249
 20
597.935
 30
0.000000
  70
    32
  0
VERTEX
  8
0
  5
B622
 10
79.8736
 20
597.996
 30
0.000000
  70
    32
  0
VERTEX
  8
0
  5
B623
 10
79.9236
 20
598.056
 30
0.000000
  70
    32
  0
VERTEX
  8
0
  5
B624
 10
79.9751
 20
598.116
 30
0.000000
  70
    32
  0
VERTEX
  8
0
  5
B625
 10
80.0278
 20
598.174
 30
0.000000
  70
    32
  0
VERTEX
  8
0
  5
B626
 10
80.0819
 20
598.232
 30
0.000000
  70
    32
  0
VERTEX
  8
0
  5
B627
 10
80.1373
 20
598.289
 30
0.000000
  70
    32
  0
VERTEX
  8
0
  5
B628
 10
80.1939
 20
598.346
 30
0.000000
  70
    32
  0
VERTEX
  8
0
  5
B629
 10
80.2518
 20
598.401
 30
0.000000
  70
    32
  0
VERTEX
  8
0
  5
B62A
 10
80.3110
 20
598.456
 30
0.000000
  70
    32
  0
VERTEX
  8
0
  5
B62B
 10
80.3714
 20
598.510
 30
0.000000
  70
    32
  0
VERTEX
  8
0
  5
B62C
 10
80.4330
 20
598.563
 30
0.000000
  70
    32
  0
VERTEX
  8
0
  5
B62D
 10
80.4958
 20
598.615
 30
0.000000
  70
    32
  0
VERTEX
  8
0
  5
B62E
 10
80.5597
 20
598.666
 30
0.000000
  70
    32
  0
VERTEX
  8
0
  5
B62F
 10
80.6248
 20
598.716
 30
0.000000
  70
    32
  0
VERTEX
  8
0
  5
B630
 10
80.6910
 20
598.765
 30
0.000000
  70
    32
  0
VERTEX
  8
0
  5
B631
 10
80.7583
 20
598.813
 30
0.000000
  70
    32
  0
VERTEX
  8
0
  5
B632
 10
80.8267
 20
598.860
 30
0.000000
  70
    32
  0
VERTEX
  8
0
  5
B633
 10
80.8961
 20
598.907
 30
0.000000
  70
    32
  0
VERTEX
  8
0
  5
B634
 10
80.9666
 20
598.952
 30
0.000000
  70
    32
  0
VERTEX
  8
0
  5
B635
 10
81.0381
 20
598.996
 30
0.000000
  70
    32
  0
VERTEX
  8
0
  5
B636
 10
81.1106
 20
599.039
 30
0.000000
  70
    32
  0
VERTEX
  8
0
  5
B637
 10
81.1840
 20
599.081
 30
0.000000
  70
    32
  0
VERTEX
  8
0
  5
B638
 10
81.2584
 20
599.123
 30
0.000000
  70
    32
  0
VERTEX
  8
0
  5
B639
 10
81.3337
 20
599.163
 30
0.000000
  70
    32
  0
VERTEX
  8
0
  5
B63A
 10
81.4098
 20
599.201
 30
0.000000
  70
    32
  0
VERTEX
  8
0
  5
B63B
 10
81.4869
 20
599.239
 30
0.000000
  70
    32
  0
VERTEX
  8
0
  5
B63C
 10
81.5648
 20
599.276
 30
0.000000
  70
    32
  0
VERTEX
  8
0
  5
B63D
 10
81.6435
 20
599.311
 30
0.000000
  70
    32
  0
VERTEX
  8
0
  5
B63E
 10
81.7230
 20
599.346
 30
0.000000
  70
    32
  0
VERTEX
  8
0
  5
B63F
 10
81.8032
 20
599.379
 30
0.000000
  70
    32
  0
VERTEX
  8
0
  5
B640
 10
81.8842
 20
599.411
 30
0.000000
  70
    32
  0
VERTEX
  8
0
  5
B641
 10
81.9659
 20
599.442
 30
0.000000
  70
    32
  0
VERTEX
  8
0
  5
B642
 10
82.0483
 20
599.472
 30
0.000000
  70
    32
  0
VERTEX
  8
0
  5
B643
 10
82.1313
 20
599.500
 30
0.000000
  70
    32
  0
VERTEX
  8
0
  5
B644
 10
82.2150
 20
599.527
 30
0.000000
  70
    32
  0
VERTEX
  8
0
  5
B645
 10
82.2993
 20
599.553
 30
0.000000
  70
    32
  0
VERTEX
  8
0
  5
B646
 10
82.3841
 20
599.578
 30
0.000000
  70
    32
  0
VERTEX
  8
0
  5
B647
 10
82.4695
 20
599.602
 30
0.000000
  70
    32
  0
VERTEX
  8
0
  5
B648
 10
82.5555
 20
599.624
 30
0.000000
  70
    32
  0
VERTEX
  8
0
  5
B649
 10
82.6419
 20
599.645
 30
0.000000
  70
    32
  0
VERTEX
  8
0
  5
B64A
 10
82.7287
 20
599.665
 30
0.000000
  70
    32
  0
VERTEX
  8
0
  5
B64B
 10
82.8161
 20
599.684
 30
0.000000
  70
    32
  0
VERTEX
  8
0
  5
B64C
 10
82.9038
 20
599.701
 30
0.000000
  70
    32
  0
VERTEX
  8
0
  5
B64D
 10
82.9919
 20
599.717
 30
0.000000
  70
    32
  0
VERTEX
  8
0
  5
B64E
 10
83.0803
 20
599.732
 30
0.000000
  70
    32
  0
VERTEX
  8
0
  5
B64F
 10
83.1691
 20
599.746
 30
0.000000
  70
    32
  0
VERTEX
  8
0
  5
B650
 10
83.2581
 20
599.758
 30
0.000000
  70
    32
  0
VERTEX
  8
0
  5
B651
 10
83.3474
 20
599.769
 30
0.000000
  70
    32
  0
VERTEX
  8
0
  5
B652
 10
83.4370
 20
599.779
 30
0.000000
  70
    32
  0
VERTEX
  8
0
  5
B653
 10
83.5267
 20
599.787
 30
0.000000
  70
    32
  0
VERTEX
  8
0
  5
B654
 10
83.6167
 20
599.794
 30
0.000000
  70
    32
  0
VERTEX
  8
0
  5
B655
 10
83.7067
 20
599.800
 30
0.000000
  70
    32
  0
VERTEX
  8
0
  5
B656
 10
83.7969
 20
599.804
 30
0.000000
  70
    32
  0
VERTEX
  8
0
  5
B657
 10
83.8872
 20
599.807
 30
0.000000
  70
    32
  0
VERTEX
  8
0
  5
B658
 10
83.9775
 20
599.809
 30
0.000000
  70
    32
  0
VERTEX
  8
0
  5
B659
 10
84.0679
 20
599.810
 30
0.000000
  70
    32
  0
VERTEX
  8
0
  5
B65A
 10
84.1582
 20
599.809
 30
0.000000
  70
    32
  0
VERTEX
  8
0
  5
B65B
 10
84.2486
 20
599.807
 30
0.000000
  70
    32
  0
VERTEX
  8
0
  5
B65C
 10
84.3388
 20
599.804
 30
0.000000
  70
    32
  0
VERTEX
  8
0
  5
B65D
 10
84.4290
 20
599.799
 30
0.000000
  70
    32
  0
VERTEX
  8
0
  5
B65E
 10
84.5190
 20
599.793
 30
0.000000
  70
    32
  0
VERTEX
  8
0
  5
B65F
 10
84.6089
 20
599.786
 30
0.000000
  70
    32
  0
VERTEX
  8
0
  5
B660
 10
84.6987
 20
599.777
 30
0.000000
  70
    32
  0
VERTEX
  8
0
  5
B661
 10
84.7882
 20
599.767
 30
0.000000
  70
    32
  0
VERTEX
  8
0
  5
B662
 10
84.8774
 20
599.756
 30
0.000000
  70
    32
  0
VERTEX
  8
0
  5
B663
 10
84.9664
 20
599.744
 30
0.000000
  70
    32
  0
VERTEX
  8
0
  5
B664
 10
85.0552
 20
599.730
 30
0.000000
  70
    32
  0
VERTEX
  8
0
  5
B665
 10
85.1435
 20
599.715
 30
0.000000
  70
    32
  0
VERTEX
  8
0
  5
B666
 10
85.2316
 20
599.698
 30
0.000000
  70
    32
  0
VERTEX
  8
0
  5
B667
 10
85.3192
 20
599.681
 30
0.000000
  70
    32
  0
VERTEX
  8
0
  5
B668
 10
85.4065
 20
599.662
 30
0.000000
  70
    32
  0
VERTEX
  8
0
  5
B669
 10
85.4933
 20
599.642
 30
0.000000
  70
    32
  0
VERTEX
  8
0
  5
B66A
 10
85.5796
 20
599.621
 30
0.000000
  70
    32
  0
VERTEX
  8
0
  5
B66B
 10
85.6654
 20
599.598
 30
0.000000
  70
    32
  0
VERTEX
  8
0
  5
B66C
 10
85.7508
 20
599.574
 30
0.000000
  70
    32
  0
VERTEX
  8
0
  5
B66D
 10
85.8355
 20
599.549
 30
0.000000
  70
    32
  0
VERTEX
  8
0
  5
B66E
 10
85.9197
 20
599.523
 30
0.000000
  70
    32
  0
VERTEX
  8
0
  5
B66F
 10
86.0033
 20
599.495
 30
0.000000
  70
    32
  0
VERTEX
  8
0
  5
B670
 10
86.0862
 20
599.467
 30
0.000000
  70
    32
  0
VERTEX
  8
0
  5
B671
 10
86.1685
 20
599.437
 30
0.000000
  70
    32
  0
VERTEX
  8
0
  5
B672
 10
86.2501
 20
599.406
 30
0.000000
  70
    32
  0
VERTEX
  8
0
  5
B673
 10
86.3309
 20
599.374
 30
0.000000
  70
    32
  0
VERTEX
  8
0
  5
B674
 10
86.4111
 20
599.340
 30
0.000000
  70
    32
  0
VERTEX
  8
0
  5
B675
 10
86.4904
 20
599.306
 30
0.000000
  70
    32
  0
VERTEX
  8
0
  5
B676
 10
86.5690
 20
599.270
 30
0.000000
  70
    32
  0
VERTEX
  8
0
  5
B677
 10
86.6468
 20
599.233
 30
0.000000
  70
    32
  0
VERTEX
  8
0
  5
B678
 10
86.7237
 20
599.195
 30
0.000000
  70
    32
  0
VERTEX
  8
0
  5
B679
 10
86.7997
 20
599.156
 30
0.000000
  70
    32
  0
VERTEX
  8
0
  5
B67A
 10
86.8748
 20
599.116
 30
0.000000
  70
    32
  0
VERTEX
  8
0
  5
B67B
 10
86.9491
 20
599.075
 30
0.000000
  70
    32
  0
VERTEX
  8
0
  5
B67C
 10
87.0224
 20
599.032
 30
0.000000
  70
    32
  0
VERTEX
  8
0
  5
B67D
 10
87.0947
 20
598.989
 30
0.000000
  70
    32
  0
VERTEX
  8
0
  5
B67E
 10
87.1660
 20
598.945
 30
0.000000
  70
    32
  0
VERTEX
  8
0
  5
B67F
 10
87.2363
 20
598.899
 30
0.000000
  70
    32
  0
VERTEX
  8
0
  5
B680
 10
87.3056
 20
598.853
 30
0.000000
  70
    32
  0
VERTEX
  8
0
  5
B681
 10
87.3738
 20
598.805
 30
0.000000
  70
    32
  0
VERTEX
  8
0
  5
B682
 10
87.4409
 20
598.757
 30
0.000000
  70
    32
  0
SEQEND
  8
0
  5
B683
  0
ARC
  5
846D
  8
0
 10
89.216099573724478
 20
601.17546549462975
 30
0.0
 40
3.0
 50
233.71999165092009
 51
303.1898592096826
  0
POLYLINE
  5
846E
  8
0
 10
90.85834492128329
 20
100.95458674776103
 30
0.0
 66
     1
 70
     8
  0
VERTEX
  8
0
  5
B684
 10
90.8583
 20
100.955
 30
0.000000
  70
    32
  0
VERTEX
  8
0
  5
B685
 10
90.9376
 20
100.904
 30
0.000000
  70
    32
  0
VERTEX
  8
0
  5
B686
 10
91.0182
 20
100.854
 30
0.000000
  70
    32
  0
VERTEX
  8
0
  5
B687
 10
91.1001
 20
100.805
 30
0.000000
  70
    32
  0
VERTEX
  8
0
  5
B688
 10
91.1834
 20
100.757
 30
0.000000
  70
    32
  0
VERTEX
  8
0
  5
B689
 10
91.2680
 20
100.710
 30
0.000000
  70
    32
  0
VERTEX
  8
0
  5
B68A
 10
91.3539
 20
100.664
 30
0.000000
  70
    32
  0
VERTEX
  8
0
  5
B68B
 10
91.4410
 20
100.620
 30
0.000000
  70
    32
  0
VERTEX
  8
0
  5
B68C
 10
91.5294
 20
100.576
 30
0.000000
  70
    32
  0
VERTEX
  8
0
  5
B68D
 10
91.6189
 20
100.533
 30
0.000000
  70
    32
  0
VERTEX
  8
0
  5
B68E
 10
91.7096
 20
100.492
 30
0.000000
  70
    32
  0
VERTEX
  8
0
  5
B68F
 10
91.8014
 20
100.451
 30
0.000000
  70
    32
  0
VERTEX
  8
0
  5
B690
 10
91.8943
 20
100.412
 30
0.000000
  70
    32
  0
VERTEX
  8
0
  5
B691
 10
91.9882
 20
100.374
 30
0.000000
  70
    32
  0
VERTEX
  8
0
  5
B692
 10
92.0832
 20
100.337
 30
0.000000
  70
    32
  0
VERTEX
  8
0
  5
B693
 10
92.1792
 20
100.301
 30
0.000000
  70
    32
  0
VERTEX
  8
0
  5
B694
 10
92.2762
 20
100.267
 30
0.000000
  70
    32
  0
VERTEX
  8
0
  5
B695
 10
92.3741
 20
100.233
 30
0.000000
  70
    32
  0
VERTEX
  8
0
  5
B696
 10
92.4729
 20
100.201
 30
0.000000
  70
    32
  0
VERTEX
  8
0
  5
B697
 10
92.5726
 20
100.170
 30
0.000000
  70
    32
  0
VERTEX
  8
0
  5
B698
 10
92.6731
 20
100.140
 30
0.000000
  70
    32
  0
VERTEX
  8
0
  5
B699
 10
92.7744
 20
100.111
 30
0.000000
  70
    32
  0
VERTEX
  8
0
  5
B69A
 10
92.8765
 20
100.084
 30
0.000000
  70
    32
  0
VERTEX
  8
0
  5
B69B
 10
92.9793
 20
100.058
 30
0.000000
  70
    32
  0
VERTEX
  8
0
  5
B69C
 10
93.0828
 20
100.033
 30
0.000000
  70
    32
  0
VERTEX
  8
0
  5
B69D
 10
93.1870
 20
100.010
 30
0.000000
  70
    32
  0
VERTEX
  8
0
  5
B69E
 10
93.2918
 20
99.9875
 30
0.000000
  70
    32
  0
VERTEX
  8
0
  5
B69F
 10
93.3972
 20
99.9665
 30
0.000000
  70
    32
  0
VERTEX
  8
0
  5
B6A0
 10
93.5032
 20
99.9468
 30
0.000000
  70
    32
  0
VERTEX
  8
0
  5
B6A1
 10
93.6097
 20
99.9284
 30
0.000000
  70
    32
  0
VERTEX
  8
0
  5
B6A2
 10
93.7166
 20
99.9114
 30
0.000000
  70
    32
  0
VERTEX
  8
0
  5
B6A3
 10
93.8241
 20
99.8956
 30
0.000000
  70
    32
  0
VERTEX
  8
0
  5
B6A4
 10
93.9319
 20
99.8811
 30
0.000000
  70
    32
  0
VERTEX
  8
0
  5
B6A5
 10
94.0401
 20
99.8680
 30
0.000000
  70
    32
  0
VERTEX
  8
0
  5
B6A6
 10
94.1487
 20
99.8562
 30
0.000000
  70
    32
  0
VERTEX
  8
0
  5
B6A7
 10
94.2576
 20
99.8457
 30
0.000000
  70
    32
  0
VERTEX
  8
0
  5
B6A8
 10
94.3667
 20
99.8366
 30
0.000000
  70
    32
  0
VERTEX
  8
0
  5
B6A9
 10
94.4761
 20
99.8288
 30
0.000000
  70
    32
  0
VERTEX
  8
0
  5
B6AA
 10
94.5856
 20
99.8223
 30
0.000000
  70
    32
  0
VERTEX
  8
0
  5
B6AB
 10
94.6954
 20
99.8171
 30
0.000000
  70
    32
  0
VERTEX
  8
0
  5
B6AC
 10
94.8052
 20
99.8134
 30
0.000000
  70
    32
  0
VERTEX
  8
0
  5
B6AD
 10
94.9152
 20
99.8109
 30
0.000000
  70
    32
  0
VERTEX
  8
0
  5
B6AE
 10
95.0252
 20
99.8098
 30
0.000000
  70
    32
  0
VERTEX
  8
0
  5
B6AF
 10
95.1352
 20
99.8100
 30
0.000000
  70
    32
  0
VERTEX
  8
0
  5
B6B0
 10
95.2451
 20
99.8116
 30
0.000000
  70
    32
  0
VERTEX
  8
0
  5
B6B1
 10
95.3550
 20
99.8146
 30
0.000000
  70
    32
  0
VERTEX
  8
0
  5
B6B2
 10
95.4649
 20
99.8188
 30
0.000000
  70
    32
  0
VERTEX
  8
0
  5
B6B3
 10
95.5745
 20
99.8244
 30
0.000000
  70
    32
  0
VERTEX
  8
0
  5
B6B4
 10
95.6840
 20
99.8314
 30
0.000000
  70
    32
  0
VERTEX
  8
0
  5
B6B5
 10
95.7933
 20
99.8397
 30
0.000000
  70
    32
  0
VERTEX
  8
0
  5
B6B6
 10
95.9024
 20
99.8493
 30
0.000000
  70
    32
  0
VERTEX
  8
0
  5
B6B7
 10
96.0111
 20
99.8603
 30
0.000000
  70
    32
  0
VERTEX
  8
0
  5
B6B8
 10
96.1196
 20
99.8725
 30
0.000000
  70
    32
  0
VERTEX
  8
0
  5
B6B9
 10
96.2277
 20
99.8861
 30
0.000000
  70
    32
  0
VERTEX
  8
0
  5
B6BA
 10
96.3354
 20
99.9011
 30
0.000000
  70
    32
  0
VERTEX
  8
0
  5
B6BB
 10
96.4427
 20
99.9173
 30
0.000000
  70
    32
  0
VERTEX
  8
0
  5
B6BC
 10
96.5495
 20
99.9349
 30
0.000000
  70
    32
  0
VERTEX
  8
0
  5
B6BD
 10
96.6558
 20
99.9537
 30
0.000000
  70
    32
  0
VERTEX
  8
0
  5
B6BE
 10
96.7615
 20
99.9738
 30
0.000000
  70
    32
  0
VERTEX
  8
0
  5
B6BF
 10
96.8667
 20
99.9953
 30
0.000000
  70
    32
  0
VERTEX
  8
0
  5
B6C0
 10
96.9713
 20
100.018
 30
0.000000
  70
    32
  0
VERTEX
  8
0
  5
B6C1
 10
97.0753
 20
100.042
 30
0.000000
  70
    32
  0
VERTEX
  8
0
  5
B6C2
 10
97.1785
 20
100.067
 30
0.000000
  70
    32
  0
VERTEX
  8
0
  5
B6C3
 10
97.2811
 20
100.094
 30
0.000000
  70
    32
  0
VERTEX
  8
0
  5
B6C4
 10
97.3829
 20
100.122
 30
0.000000
  70
    32
  0
VERTEX
  8
0
  5
B6C5
 10
97.4839
 20
100.151
 30
0.000000
  70
    32
  0
VERTEX
  8
0
  5
B6C6
 10
97.5842
 20
100.181
 30
0.000000
  70
    32
  0
VERTEX
  8
0
  5
B6C7
 10
97.6835
 20
100.212
 30
0.000000
  70
    32
  0
VERTEX
  8
0
  5
B6C8
 10
97.7820
 20
100.245
 30
0.000000
  70
    32
  0
VERTEX
  8
0
  5
B6C9
 10
97.8796
 20
100.279
 30
0.000000
  70
    32
  0
VERTEX
  8
0
  5
B6CA
 10
97.9762
 20
100.314
 30
0.000000
  70
    32
  0
VERTEX
  8
0
  5
B6CB
 10
98.0719
 20
100.350
 30
0.000000
  70
    32
  0
VERTEX
  8
0
  5
B6CC
 10
98.1665
 20
100.387
 30
0.000000
  70
    32
  0
VERTEX
  8
0
  5
B6CD
 10
98.2601
 20
100.426
 30
0.000000
  70
    32
  0
VERTEX
  8
0
  5
B6CE
 10
98.3526
 20
100.466
 30
0.000000
  70
    32
  0
VERTEX
  8
0
  5
B6CF
 10
98.4440
 20
100.506
 30
0.000000
  70
    32
  0
VERTEX
  8
0
  5
B6D0
 10
98.5343
 20
100.548
 30
0.000000
  70
    32
  0
VERTEX
  8
0
  5
B6D1
 10
98.6234
 20
100.591
 30
0.000000
  70
    32
  0
VERTEX
  8
0
  5
B6D2
 10
98.7113
 20
100.635
 30
0.000000
  70
    32
  0
VERTEX
  8
0
  5
B6D3
 10
98.7979
 20
100.681
 30
0.000000
  70
    32
  0
VERTEX
  8
0
  5
B6D4
 10
98.8834
 20
100.727
 30
0.000000
  70
    32
  0
VERTEX
  8
0
  5
B6D5
 10
98.9675
 20
100.774
 30
0.000000
  70
    32
  0
VERTEX
  8
0
  5
B6D6
 10
99.0503
 20
100.822
 30
0.000000
  70
    32
  0
VERTEX
  8
0
  5
B6D7
 10
99.1318
 20
100.872
 30
0.000000
  70
    32
  0
VERTEX
  8
0
  5
B6D8
 10
99.2119
 20
100.922
 30
0.000000
  70
    32
  0
VERTEX
  8
0
  5
B6D9
 10
99.2906
 20
100.973
 30
0.000000
  70
    32
  0
VERTEX
  8
0
  5
B6DA
 10
99.3679
 20
101.025
 30
0.000000
  70
    32
  0
VERTEX
  8
0
  5
B6DB
 10
99.4438
 20
101.078
 30
0.000000
  70
    32
  0
VERTEX
  8
0
  5
B6DC
 10
99.5182
 20
101.132
 30
0.000000
  70
    32
  0
VERTEX
  8
0
  5
B6DD
 10
99.5910
 20
101.187
 30
0.000000
  70
    32
  0
VERTEX
  8
0
  5
B6DE
 10
99.6624
 20
101.243
 30
0.000000
  70
    32
  0
VERTEX
  8
0
  5
B6DF
 10
99.7322
 20
101.300
 30
0.000000
  70
    32
  0
VERTEX
  8
0
  5
B6E0
 10
99.8004
 20
101.357
 30
0.000000
  70
    32
  0
VERTEX
  8
0
  5
B6E1
 10
99.8671
 20
101.416
 30
0.000000
  70
    32
  0
VERTEX
  8
0
  5
B6E2
 10
99.9321
 20
101.475
 30
0.000000
  70
    32
  0
VERTEX
  8
0
  5
B6E3
 10
99.9955
 20
101.535
 30
0.000000
  70
    32
  0
VERTEX
  8
0
  5
B6E4
 10
100.057
 20
101.595
 30
0.000000
  70
    32
  0
VERTEX
  8
0
  5
B6E5
 10
100.117
 20
101.657
 30
0.000000
  70
    32
  0
VERTEX
  8
0
  5
B6E6
 10
100.176
 20
101.719
 30
0.000000
  70
    32
  0
VERTEX
  8
0
  5
B6E7
 10
100.232
 20
101.782
 30
0.000000
  70
    32
  0
VERTEX
  8
0
  5
B6E8
 10
100.287
 20
101.845
 30
0.000000
  70
    32
  0
VERTEX
  8
0
  5
B6E9
 10
100.340
 20
101.910
 30
0.000000
  70
    32
  0
VERTEX
  8
0
  5
B6EA
 10
100.392
 20
101.974
 30
0.000000
  70
    32
  0
VERTEX
  8
0
  5
B6EB
 10
100.441
 20
102.040
 30
0.000000
  70
    32
  0
VERTEX
  8
0
  5
B6EC
 10
100.489
 20
102.106
 30
0.000000
  70
    32
  0
VERTEX
  8
0
  5
B6ED
 10
100.535
 20
102.173
 30
0.000000
  70
    32
  0
VERTEX
  8
0
  5
B6EE
 10
100.579
 20
102.240
 30
0.000000
  70
    32
  0
VERTEX
  8
0
  5
B6EF
 10
100.621
 20
102.307
 30
0.000000
  70
    32
  0
VERTEX
  8
0
  5
B6F0
 10
100.662
 20
102.376
 30
0.000000
  70
    32
  0
VERTEX
  8
0
  5
B6F1
 10
100.700
 20
102.444
 30
0.000000
  70
    32
  0
VERTEX
  8
0
  5
B6F2
 10
100.737
 20
102.514
 30
0.000000
  70
    32
  0
VERTEX
  8
0
  5
B6F3
 10
100.771
 20
102.583
 30
0.000000
  70
    32
  0
VERTEX
  8
0
  5
B6F4
 10
100.804
 20
102.653
 30
0.000000
  70
    32
  0
VERTEX
  8
0
  5
B6F5
 10
100.835
 20
102.724
 30
0.000000
  70
    32
  0
VERTEX
  8
0
  5
B6F6
 10
100.864
 20
102.794
 30
0.000000
  70
    32
  0
VERTEX
  8
0
  5
B6F7
 10
100.891
 20
102.865
 30
0.000000
  70
    32
  0
VERTEX
  8
0
  5
B6F8
 10
100.916
 20
102.937
 30
0.000000
  70
    32
  0
VERTEX
  8
0
  5
B6F9
 10
100.939
 20
103.009
 30
0.000000
  70
    32
  0
VERTEX
  8
0
  5
B6FA
 10
100.960
 20
103.080
 30
0.000000
  70
    32
  0
VERTEX
  8
0
  5
B6FB
 10
100.979
 20
103.153
 30
0.000000
  70
    32
  0
VERTEX
  8
0
  5
B6FC
 10
100.996
 20
103.225
 30
0.000000
  70
    32
  0
VERTEX
  8
0
  5
B6FD
 10
101.011
 20
103.298
 30
0.000000
  70
    32
  0
VERTEX
  8
0
  5
B6FE
 10
101.024
 20
103.371
 30
0.000000
  70
    32
  0
VERTEX
  8
0
  5
B6FF
 10
101.035
 20
103.444
 30
0.000000
  70
    32
  0
VERTEX
  8
0
  5
B700
 10
101.044
 20
103.517
 30
0.000000
  70
    32
  0
VERTEX
  8
0
  5
B701
 10
101.051
 20
103.590
 30
0.000000
  70
    32
  0
VERTEX
  8
0
  5
B702
 10
101.056
 20
103.663
 30
0.000000
  70
    32
  0
VERTEX
  8
0
  5
B703
 10
101.060
 20
103.736
 30
0.000000
  70
    32
  0
VERTEX
  8
0
  5
B704
 10
101.061
 20
103.810
 30
0.000000
  70
    32
  0
SEQEND
  8
0
  5
B705
  0
POLYLINE
  5
846F
  8
0
 10
79.060522691758251
 20
103.80973430069672
 30
0.0
 66
     1
 70
     8
  0
VERTEX
  8
0
  5
B706
 10
79.0605
 20
103.810
 30
0.000000
  70
    32
  0
VERTEX
  8
0
  5
B707
 10
79.0613
 20
103.737
 30
0.000000
  70
    32
  0
VERTEX
  8
0
  5
B708
 10
79.0638
 20
103.665
 30
0.000000
  70
    32
  0
VERTEX
  8
0
  5
B709
 10
79.0679
 20
103.593
 30
0.000000
  70
    32
  0
VERTEX
  8
0
  5
B70A
 10
79.0736
 20
103.521
 30
0.000000
  70
    32
  0
VERTEX
  8
0
  5
B70B
 10
79.0809
 20
103.449
 30
0.000000
  70
    32
  0
VERTEX
  8
0
  5
B70C
 10
79.0899
 20
103.377
 30
0.000000
  70
    32
  0
VERTEX
  8
0
  5
B70D
 10
79.1005
 20
103.305
 30
0.000000
  70
    32
  0
VERTEX
  8
0
  5
B70E
 10
79.1127
 20
103.233
 30
0.000000
  70
    32
  0
VERTEX
  8
0
  5
B70F
 10
79.1265
 20
103.162
 30
0.000000
  70
    32
  0
VERTEX
  8
0
  5
B710
 10
79.1420
 20
103.091
 30
0.000000
  70
    32
  0
VERTEX
  8
0
  5
B711
 10
79.1590
 20
103.020
 30
0.000000
  70
    32
  0
VERTEX
  8
0
  5
B712
 10
79.1776
 20
102.949
 30
0.000000
  70
    32
  0
VERTEX
  8
0
  5
B713
 10
79.1979
 20
102.879
 30
0.000000
  70
    32
  0
VERTEX
  8
0
  5
B714
 10
79.2197
 20
102.808
 30
0.000000
  70
    32
  0
VERTEX
  8
0
  5
B715
 10
79.2431
 20
102.739
 30
0.000000
  70
    32
  0
VERTEX
  8
0
  5
B716
 10
79.2681
 20
102.669
 30
0.000000
  70
    32
  0
VERTEX
  8
0
  5
B717
 10
79.2946
 20
102.600
 30
0.000000
  70
    32
  0
VERTEX
  8
0
  5
B718
 10
79.3227
 20
102.531
 30
0.000000
  70
    32
  0
VERTEX
  8
0
  5
B719
 10
79.3524
 20
102.463
 30
0.000000
  70
    32
  0
VERTEX
  8
0
  5
B71A
 10
79.3836
 20
102.395
 30
0.000000
  70
    32
  0
VERTEX
  8
0
  5
B71B
 10
79.4163
 20
102.328
 30
0.000000
  70
    32
  0
VERTEX
  8
0
  5
B71C
 10
79.4505
 20
102.261
 30
0.000000
  70
    32
  0
VERTEX
  8
0
  5
B71D
 10
79.4863
 20
102.195
 30
0.000000
  70
    32
  0
VERTEX
  8
0
  5
B71E
 10
79.5235
 20
102.129
 30
0.000000
  70
    32
  0
VERTEX
  8
0
  5
B71F
 10
79.5622
 20
102.063
 30
0.000000
  70
    32
  0
VERTEX
  8
0
  5
B720
 10
79.6024
 20
101.999
 30
0.000000
  70
    32
  0
VERTEX
  8
0
  5
B721
 10
79.6440
 20
101.934
 30
0.000000
  70
    32
  0
VERTEX
  8
0
  5
B722
 10
79.6871
 20
101.871
 30
0.000000
  70
    32
  0
VERTEX
  8
0
  5
B723
 10
79.7316
 20
101.808
 30
0.000000
  70
    32
  0
VERTEX
  8
0
  5
B724
 10
79.7775
 20
101.746
 30
0.000000
  70
    32
  0
VERTEX
  8
0
  5
B725
 10
79.8249
 20
101.684
 30
0.000000
  70
    32
  0
VERTEX
  8
0
  5
B726
 10
79.8736
 20
101.623
 30
0.000000
  70
    32
  0
VERTEX
  8
0
  5
B727
 10
79.9236
 20
101.563
 30
0.000000
  70
    32
  0
VERTEX
  8
0
  5
B728
 10
79.9751
 20
101.504
 30
0.000000
  70
    32
  0
VERTEX
  8
0
  5
B729
 10
80.0278
 20
101.445
 30
0.000000
  70
    32
  0
VERTEX
  8
0
  5
B72A
 10
80.0819
 20
101.387
 30
0.000000
  70
    32
  0
VERTEX
  8
0
  5
B72B
 10
80.1373
 20
101.330
 30
0.000000
  70
    32
  0
VERTEX
  8
0
  5
B72C
 10
80.1939
 20
101.274
 30
0.000000
  70
    32
  0
VERTEX
  8
0
  5
B72D
 10
80.2518
 20
101.218
 30
0.000000
  70
    32
  0
VERTEX
  8
0
  5
B72E
 10
80.3110
 20
101.164
 30
0.000000
  70
    32
  0
VERTEX
  8
0
  5
B72F
 10
80.3714
 20
101.110
 30
0.000000
  70
    32
  0
VERTEX
  8
0
  5
B730
 10
80.4330
 20
101.057
 30
0.000000
  70
    32
  0
VERTEX
  8
0
  5
B731
 10
80.4958
 20
101.005
 30
0.000000
  70
    32
  0
VERTEX
  8
0
  5
B732
 10
80.5597
 20
100.954
 30
0.000000
  70
    32
  0
VERTEX
  8
0
  5
B733
 10
80.6248
 20
100.904
 30
0.000000
  70
    32
  0
VERTEX
  8
0
  5
B734
 10
80.6910
 20
100.854
 30
0.000000
  70
    32
  0
VERTEX
  8
0
  5
B735
 10
80.7583
 20
100.806
 30
0.000000
  70
    32
  0
VERTEX
  8
0
  5
B736
 10
80.8267
 20
100.759
 30
0.000000
  70
    32
  0
VERTEX
  8
0
  5
B737
 10
80.8961
 20
100.713
 30
0.000000
  70
    32
  0
VERTEX
  8
0
  5
B738
 10
80.9666
 20
100.667
 30
0.000000
  70
    32
  0
VERTEX
  8
0
  5
B739
 10
81.0381
 20
100.623
 30
0.000000
  70
    32
  0
VERTEX
  8
0
  5
B73A
 10
81.1106
 20
100.580
 30
0.000000
  70
    32
  0
VERTEX
  8
0
  5
B73B
 10
81.1840
 20
100.538
 30
0.000000
  70
    32
  0
VERTEX
  8
0
  5
B73C
 10
81.2584
 20
100.497
 30
0.000000
  70
    32
  0
VERTEX
  8
0
  5
B73D
 10
81.3337
 20
100.457
 30
0.000000
  70
    32
  0
VERTEX
  8
0
  5
B73E
 10
81.4098
 20
100.418
 30
0.000000
  70
    32
  0
VERTEX
  8
0
  5
B73F
 10
81.4869
 20
100.380
 30
0.000000
  70
    32
  0
VERTEX
  8
0
  5
B740
 10
81.5648
 20
100.344
 30
0.000000
  70
    32
  0
VERTEX
  8
0
  5
B741
 10
81.6435
 20
100.308
 30
0.000000
  70
    32
  0
VERTEX
  8
0
  5
B742
 10
81.7230
 20
100.274
 30
0.000000
  70
    32
  0
VERTEX
  8
0
  5
B743
 10
81.8032
 20
100.241
 30
0.000000
  70
    32
  0
VERTEX
  8
0
  5
B744
 10
81.8842
 20
100.209
 30
0.000000
  70
    32
  0
VERTEX
  8
0
  5
B745
 10
81.9659
 20
100.178
 30
0.000000
  70
    32
  0
VERTEX
  8
0
  5
B746
 10
82.0483
 20
100.148
 30
0.000000
  70
    32
  0
VERTEX
  8
0
  5
B747
 10
82.1313
 20
100.119
 30
0.000000
  70
    32
  0
VERTEX
  8
0
  5
B748
 10
82.2150
 20
100.092
 30
0.000000
  70
    32
  0
VERTEX
  8
0
  5
B749
 10
82.2993
 20
100.066
 30
0.000000
  70
    32
  0
VERTEX
  8
0
  5
B74A
 10
82.3841
 20
100.041
 30
0.000000
  70
    32
  0
VERTEX
  8
0
  5
B74B
 10
82.4695
 20
100.018
 30
0.000000
  70
    32
  0
VERTEX
  8
0
  5
B74C
 10
82.5555
 20
99.9953
 30
0.000000
  70
    32
  0
VERTEX
  8
0
  5
B74D
 10
82.6419
 20
99.9741
 30
0.000000
  70
    32
  0
VERTEX
  8
0
  5
B74E
 10
82.7287
 20
99.9542
 30
0.000000
  70
    32
  0
VERTEX
  8
0
  5
B74F
 10
82.8161
 20
99.9356
 30
0.000000
  70
    32
  0
VERTEX
  8
0
  5
B750
 10
82.9038
 20
99.9183
 30
0.000000
  70
    32
  0
VERTEX
  8
0
  5
B751
 10
82.9919
 20
99.9022
 30
0.000000
  70
    32
  0
VERTEX
  8
0
  5
B752
 10
83.0803
 20
99.8874
 30
0.000000
  70
    32
  0
VERTEX
  8
0
  5
B753
 10
83.1691
 20
99.8738
 30
0.000000
  70
    32
  0
VERTEX
  8
0
  5
B754
 10
83.2581
 20
99.8616
 30
0.000000
  70
    32
  0
VERTEX
  8
0
  5
B755
 10
83.3474
 20
99.8506
 30
0.000000
  70
    32
  0
VERTEX
  8
0
  5
B756
 10
83.4370
 20
99.8410
 30
0.000000
  70
    32
  0
VERTEX
  8
0
  5
B757
 10
83.5267
 20
99.8326
 30
0.000000
  70
    32
  0
VERTEX
  8
0
  5
B758
 10
83.6167
 20
99.8255
 30
0.000000
  70
    32
  0
VERTEX
  8
0
  5
B759
 10
83.7067
 20
99.8198
 30
0.000000
  70
    32
  0
VERTEX
  8
0
  5
B75A
 10
83.7969
 20
99.8153
 30
0.000000
  70
    32
  0
VERTEX
  8
0
  5
B75B
 10
83.8872
 20
99.8121
 30
0.000000
  70
    32
  0
VERTEX
  8
0
  5
B75C
 10
83.9775
 20
99.8103
 30
0.000000
  70
    32
  0
VERTEX
  8
0
  5
B75D
 10
84.0679
 20
99.8097
 30
0.000000
  70
    32
  0
VERTEX
  8
0
  5
B75E
 10
84.1582
 20
99.8105
 30
0.000000
  70
    32
  0
VERTEX
  8
0
  5
B75F
 10
84.2486
 20
99.8126
 30
0.000000
  70
    32
  0
VERTEX
  8
0
  5
B760
 10
84.3388
 20
99.8159
 30
0.000000
  70
    32
  0
VERTEX
  8
0
  5
B761
 10
84.4290
 20
99.8206
 30
0.000000
  70
    32
  0
VERTEX
  8
0
  5
B762
 10
84.5190
 20
99.8266
 30
0.000000
  70
    32
  0
VERTEX
  8
0
  5
B763
 10
84.6089
 20
99.8339
 30
0.000000
  70
    32
  0
VERTEX
  8
0
  5
B764
 10
84.6987
 20
99.8424
 30
0.000000
  70
    32
  0
VERTEX
  8
0
  5
B765
 10
84.7882
 20
99.8523
 30
0.000000
  70
    32
  0
VERTEX
  8
0
  5
B766
 10
84.8774
 20
99.8635
 30
0.000000
  70
    32
  0
VERTEX
  8
0
  5
B767
 10
84.9664
 20
99.8759
 30
0.000000
  70
    32
  0
VERTEX
  8
0
  5
B768
 10
85.0552
 20
99.8897
 30
0.000000
  70
    32
  0
VERTEX
  8
0
  5
B769
 10
85.1435
 20
99.9047
 30
0.000000
  70
    32
  0
VERTEX
  8
0
  5
B76A
 10
85.2316
 20
99.9210
 30
0.000000
  70
    32
  0
VERTEX
  8
0
  5
B76B
 10
85.3192
 20
99.9386
 30
0.000000
  70
    32
  0
VERTEX
  8
0
  5
B76C
 10
85.4065
 20
99.9574
 30
0.000000
  70
    32
  0
VERTEX
  8
0
  5
B76D
 10
85.4933
 20
99.9775
 30
0.000000
  70
    32
  0
VERTEX
  8
0
  5
B76E
 10
85.5796
 20
99.9988
 30
0.000000
  70
    32
  0
VERTEX
  8
0
  5
B76F
 10
85.6654
 20
100.021
 30
0.000000
  70
    32
  0
VERTEX
  8
0
  5
B770
 10
85.7508
 20
100.045
 30
0.000000
  70
    32
  0
VERTEX
  8
0
  5
B771
 10
85.8355
 20
100.070
 30
0.000000
  70
    32
  0
VERTEX
  8
0
  5
B772
 10
85.9197
 20
100.097
 30
0.000000
  70
    32
  0
VERTEX
  8
0
  5
B773
 10
86.0033
 20
100.124
 30
0.000000
  70
    32
  0
VERTEX
  8
0
  5
B774
 10
86.0862
 20
100.153
 30
0.000000
  70
    32
  0
VERTEX
  8
0
  5
B775
 10
86.1685
 20
100.183
 30
0.000000
  70
    32
  0
VERTEX
  8
0
  5
B776
 10
86.2501
 20
100.214
 30
0.000000
  70
    32
  0
VERTEX
  8
0
  5
B777
 10
86.3309
 20
100.246
 30
0.000000
  70
    32
  0
VERTEX
  8
0
  5
B778
 10
86.4111
 20
100.279
 30
0.000000
  70
    32
  0
VERTEX
  8
0
  5
B779
 10
86.4904
 20
100.314
 30
0.000000
  70
    32
  0
VERTEX
  8
0
  5
B77A
 10
86.5690
 20
100.350
 30
0.000000
  70
    32
  0
VERTEX
  8
0
  5
B77B
 10
86.6468
 20
100.386
 30
0.000000
  70
    32
  0
VERTEX
  8
0
  5
B77C
 10
86.7237
 20
100.424
 30
0.000000
  70
    32
  0
VERTEX
  8
0
  5
B77D
 10
86.7997
 20
100.463
 30
0.000000
  70
    32
  0
VERTEX
  8
0
  5
B77E
 10
86.8748
 20
100.504
 30
0.000000
  70
    32
  0
VERTEX
  8
0
  5
B77F
 10
86.9491
 20
100.545
 30
0.000000
  70
    32
  0
VERTEX
  8
0
  5
B780
 10
87.0224
 20
100.587
 30
0.000000
  70
    32
  0
VERTEX
  8
0
  5
B781
 10
87.0947
 20
100.630
 30
0.000000
  70
    32
  0
VERTEX
  8
0
  5
B782
 10
87.1660
 20
100.675
 30
0.000000
  70
    32
  0
VERTEX
  8
0
  5
B783
 10
87.2363
 20
100.720
 30
0.000000
  70
    32
  0
VERTEX
  8
0
  5
B784
 10
87.3056
 20
100.767
 30
0.000000
  70
    32
  0
VERTEX
  8
0
  5
B785
 10
87.3738
 20
100.814
 30
0.000000
  70
    32
  0
VERTEX
  8
0
  5
B786
 10
87.4409
 20
100.862
 30
0.000000
  70
    32
  0
SEQEND
  8
0
  5
B787
  0
ARC
  5
8470
  8
0
 10
89.216099573731299
 20
98.444003106765194
 30
0.0
 40
3.0
 50
56.810140790317398
 51
126.28000834907991
  0
ARC
  5
8471
  8
0
 10
79.06052269175143
 20
598.80973430069662
 30
0.0
 40
3.0
 50
180.0
 51
270.0
  0
ARC
  5
8472
  8
0
 10
79.060522691758251
 20
100.8097343006966
 30
0.0
 40
3.0
 50
90.0
 51
180.0
  0
LINE
  5
8473
  8
0
 10
79.060522691750975
 20
637.8097348196369
 30
0.0
 11
172.5038630729982
 21
637.8097348196369
 31
0.0
  0
LINE
  5
8474
  8
0
 10
85.06052269175143
 20
631.80973481963701
 30
0.0
 11
171.9789310918427
 21
631.80973481963701
 31
0.0
  0
LINE
  5
8475
  8
0
 10
85.06052269175143
 20
601.80973481963701
 30
0.0
 11
169.35427118606501
 21
601.80973481963701
 31
0.0
  0
LINE
  5
8476
  8
0
 10
79.06052269175143
 20
61.809734819637931
 30
0.0
 11
122.1103928820657
 21
61.809734819637931
 31
0.0
  0
LINE
  5
8477
  8
0
 10
85.06052269175143
 20
67.809734819637015
 30
0.0
 11
122.6353248632213
 21
67.809734819637015
 31
0.0
  0
LINE
  5
8478
  8
0
 10
85.06052269175143
 20
97.809734819637015
 30
0.0
 11
125.2599847689989
 21
97.809734819637015
 31
0.0
  0
LINE
  5
8479
  8
0
 10
177.9115142876089
 20
699.619471037734
 30
0.0
 11
116.7027418972893
 21
0.0000012285590856
 31
0.0
  0
LINE
  5
847A
  8
0
 10
141.06052269175001
 20
595.80853644120805
 30
0.0
 11
156.06052269175049
 21
595.80853644120805
 31
0.0
  0
LINE
  5
847B
  8
0
 10
156.06052269175049
 20
595.80853644120805
 30
0.0
 11
156.06052269175001
 21
449.86149422987
 31
0.0
  0
LINE
  5
847C
  8
0
 10
168.06052269174731
 20
598.0235977635848
 30
0.0
 11
168.06166565694181
 21
587.03518601492124
 31
0.0
  0
LINE
  5
847D
  8
0
 10
161.06052269174731
 20
599.75258963219767
 30
0.0
 11
161.06052269174731
 21
507.0117557436397
 31
0.0
  0
POLYLINE
  5
847E
  8
0
 10
166.40720840342556
 20
598.56585591869828
 30
0.0
 66
     1
 70
     8
  0
VERTEX
  8
0
  5
B788
 10
166.407
 20
598.566
 30
0.000000
  70
    32
  0
VERTEX
  8
0
  5
B789
 10
166.330
 20
598.619
 30
0.000000
  70
    32
  0
VERTEX
  8
0
  5
B78A
 10
166.250
 20
598.672
 30
0.000000
  70
    32
  0
VERTEX
  8
0
  5
B78B
 10
166.170
 20
598.723
 30
0.000000
  70
    32
  0
VERTEX
  8
0
  5
B78C
 10
166.088
 20
598.774
 30
0.000000
  70
    32
  0
VERTEX
  8
0
  5
B78D
 10
166.004
 20
598.823
 30
0.000000
  70
    32
  0
VERTEX
  8
0
  5
B78E
 10
165.920
 20
598.871
 30
0.000000
  70
    32
  0
VERTEX
  8
0
  5
B78F
 10
165.833
 20
598.919
 30
0.000000
  70
    32
  0
VERTEX
  8
0
  5
B790
 10
165.746
 20
598.965
 30
0.000000
  70
    32
  0
VERTEX
  8
0
  5
B791
 10
165.657
 20
599.010
 30
0.000000
  70
    32
  0
VERTEX
  8
0
  5
B792
 10
165.567
 20
599.054
 30
0.000000
  70
    32
  0
VERTEX
  8
0
  5
B793
 10
165.476
 20
599.097
 30
0.000000
  70
    32
  0
VERTEX
  8
0
  5
B794
 10
165.384
 20
599.139
 30
0.000000
  70
    32
  0
VERTEX
  8
0
  5
B795
 10
165.290
 20
599.180
 30
0.000000
  70
    32
  0
VERTEX
  8
0
  5
B796
 10
165.196
 20
599.219
 30
0.000000
  70
    32
  0
VERTEX
  8
0
  5
B797
 10
165.100
 20
599.257
 30
0.000000
  70
    32
  0
VERTEX
  8
0
  5
B798
 10
165.003
 20
599.294
 30
0.000000
  70
    32
  0
VERTEX
  8
0
  5
B799
 10
164.905
 20
599.330
 30
0.000000
  70
    32
  0
VERTEX
  8
0
  5
B79A
 10
164.807
 20
599.365
 30
0.000000
  70
    32
  0
VERTEX
  8
0
  5
B79B
 10
164.707
 20
599.398
 30
0.000000
  70
    32
  0
VERTEX
  8
0
  5
B79C
 10
164.606
 20
599.431
 30
0.000000
  70
    32
  0
VERTEX
  8
0
  5
B79D
 10
164.505
 20
599.462
 30
0.000000
  70
    32
  0
VERTEX
  8
0
  5
B79E
 10
164.403
 20
599.491
 30
0.000000
  70
    32
  0
VERTEX
  8
0
  5
B79F
 10
164.299
 20
599.520
 30
0.000000
  70
    32
  0
VERTEX
  8
0
  5
B7A0
 10
164.195
 20
599.547
 30
0.000000
  70
    32
  0
VERTEX
  8
0
  5
B7A1
 10
164.091
 20
599.573
 30
0.000000
  70
    32
  0
VERTEX
  8
0
  5
B7A2
 10
163.985
 20
599.597
 30
0.000000
  70
    32
  0
VERTEX
  8
0
  5
B7A3
 10
163.879
 20
599.620
 30
0.000000
  70
    32
  0
VERTEX
  8
0
  5
B7A4
 10
163.773
 20
599.642
 30
0.000000
  70
    32
  0
VERTEX
  8
0
  5
B7A5
 10
163.665
 20
599.663
 30
0.000000
  70
    32
  0
VERTEX
  8
0
  5
B7A6
 10
163.558
 20
599.682
 30
0.000000
  70
    32
  0
VERTEX
  8
0
  5
B7A7
 10
163.449
 20
599.700
 30
0.000000
  70
    32
  0
VERTEX
  8
0
  5
B7A8
 10
163.340
 20
599.716
 30
0.000000
  70
    32
  0
VERTEX
  8
0
  5
B7A9
 10
163.231
 20
599.732
 30
0.000000
  70
    32
  0
VERTEX
  8
0
  5
B7AA
 10
163.122
 20
599.745
 30
0.000000
  70
    32
  0
VERTEX
  8
0
  5
B7AB
 10
163.012
 20
599.758
 30
0.000000
  70
    32
  0
VERTEX
  8
0
  5
B7AC
 10
162.901
 20
599.769
 30
0.000000
  70
    32
  0
VERTEX
  8
0
  5
B7AD
 10
162.791
 20
599.779
 30
0.000000
  70
    32
  0
VERTEX
  8
0
  5
B7AE
 10
162.680
 20
599.787
 30
0.000000
  70
    32
  0
VERTEX
  8
0
  5
B7AF
 10
162.568
 20
599.794
 30
0.000000
  70
    32
  0
VERTEX
  8
0
  5
B7B0
 10
162.457
 20
599.800
 30
0.000000
  70
    32
  0
VERTEX
  8
0
  5
B7B1
 10
162.346
 20
599.804
 30
0.000000
  70
    32
  0
VERTEX
  8
0
  5
B7B2
 10
162.234
 20
599.807
 30
0.000000
  70
    32
  0
VERTEX
  8
0
  5
B7B3
 10
162.123
 20
599.808
 30
0.000000
  70
    32
  0
VERTEX
  8
0
  5
B7B4
 10
162.011
 20
599.808
 30
0.000000
  70
    32
  0
VERTEX
  8
0
  5
B7B5
 10
161.899
 20
599.807
 30
0.000000
  70
    32
  0
VERTEX
  8
0
  5
B7B6
 10
161.788
 20
599.804
 30
0.000000
  70
    32
  0
VERTEX
  8
0
  5
B7B7
 10
161.676
 20
599.800
 30
0.000000
  70
    32
  0
VERTEX
  8
0
  5
B7B8
 10
161.565
 20
599.795
 30
0.000000
  70
    32
  0
VERTEX
  8
0
  5
B7B9
 10
161.454
 20
599.788
 30
0.000000
  70
    32
  0
VERTEX
  8
0
  5
B7BA
 10
161.343
 20
599.780
 30
0.000000
  70
    32
  0
VERTEX
  8
0
  5
B7BB
 10
161.232
 20
599.770
 30
0.000000
  70
    32
  0
VERTEX
  8
0
  5
B7BC
 10
161.122
 20
599.759
 30
0.000000
  70
    32
  0
VERTEX
  8
0
  5
B7BD
 10
161.012
 20
599.747
 30
0.000000
  70
    32
  0
VERTEX
  8
0
  5
B7BE
 10
160.902
 20
599.733
 30
0.000000
  70
    32
  0
VERTEX
  8
0
  5
B7BF
 10
160.793
 20
599.718
 30
0.000000
  70
    32
  0
VERTEX
  8
0
  5
B7C0
 10
160.684
 20
599.702
 30
0.000000
  70
    32
  0
VERTEX
  8
0
  5
B7C1
 10
160.576
 20
599.684
 30
0.000000
  70
    32
  0
VERTEX
  8
0
  5
B7C2
 10
160.468
 20
599.665
 30
0.000000
  70
    32
  0
VERTEX
  8
0
  5
B7C3
 10
160.360
 20
599.645
 30
0.000000
  70
    32
  0
VERTEX
  8
0
  5
B7C4
 10
160.254
 20
599.623
 30
0.000000
  70
    32
  0
VERTEX
  8
0
  5
B7C5
 10
160.148
 20
599.600
 30
0.000000
  70
    32
  0
VERTEX
  8
0
  5
B7C6
 10
160.042
 20
599.575
 30
0.000000
  70
    32
  0
VERTEX
  8
0
  5
B7C7
 10
159.937
 20
599.550
 30
0.000000
  70
    32
  0
VERTEX
  8
0
  5
B7C8
 10
159.833
 20
599.523
 30
0.000000
  70
    32
  0
VERTEX
  8
0
  5
B7C9
 10
159.730
 20
599.495
 30
0.000000
  70
    32
  0
VERTEX
  8
0
  5
B7CA
 10
159.628
 20
599.465
 30
0.000000
  70
    32
  0
VERTEX
  8
0
  5
B7CB
 10
159.526
 20
599.434
 30
0.000000
  70
    32
  0
VERTEX
  8
0
  5
B7CC
 10
159.425
 20
599.402
 30
0.000000
  70
    32
  0
VERTEX
  8
0
  5
B7CD
 10
159.326
 20
599.369
 30
0.000000
  70
    32
  0
VERTEX
  8
0
  5
B7CE
 10
159.227
 20
599.334
 30
0.000000
  70
    32
  0
VERTEX
  8
0
  5
B7CF
 10
159.129
 20
599.299
 30
0.000000
  70
    32
  0
VERTEX
  8
0
  5
B7D0
 10
159.032
 20
599.262
 30
0.000000
  70
    32
  0
VERTEX
  8
0
  5
B7D1
 10
158.936
 20
599.223
 30
0.000000
  70
    32
  0
VERTEX
  8
0
  5
B7D2
 10
158.841
 20
599.184
 30
0.000000
  70
    32
  0
VERTEX
  8
0
  5
B7D3
 10
158.748
 20
599.144
 30
0.000000
  70
    32
  0
VERTEX
  8
0
  5
B7D4
 10
158.655
 20
599.102
 30
0.000000
  70
    32
  0
VERTEX
  8
0
  5
B7D5
 10
158.564
 20
599.059
 30
0.000000
  70
    32
  0
VERTEX
  8
0
  5
B7D6
 10
158.474
 20
599.015
 30
0.000000
  70
    32
  0
VERTEX
  8
0
  5
B7D7
 10
158.385
 20
598.970
 30
0.000000
  70
    32
  0
VERTEX
  8
0
  5
B7D8
 10
158.298
 20
598.924
 30
0.000000
  70
    32
  0
VERTEX
  8
0
  5
B7D9
 10
158.211
 20
598.877
 30
0.000000
  70
    32
  0
VERTEX
  8
0
  5
B7DA
 10
158.126
 20
598.829
 30
0.000000
  70
    32
  0
VERTEX
  8
0
  5
B7DB
 10
158.043
 20
598.779
 30
0.000000
  70
    32
  0
VERTEX
  8
0
  5
B7DC
 10
157.961
 20
598.729
 30
0.000000
  70
    32
  0
VERTEX
  8
0
  5
B7DD
 10
157.880
 20
598.678
 30
0.000000
  70
    32
  0
VERTEX
  8
0
  5
B7DE
 10
157.800
 20
598.625
 30
0.000000
  70
    32
  0
VERTEX
  8
0
  5
B7DF
 10
157.723
 20
598.572
 30
0.000000
  70
    32
  0
VERTEX
  8
0
  5
B7E0
 10
157.646
 20
598.518
 30
0.000000
  70
    32
  0
VERTEX
  8
0
  5
B7E1
 10
157.571
 20
598.462
 30
0.000000
  70
    32
  0
VERTEX
  8
0
  5
B7E2
 10
157.498
 20
598.406
 30
0.000000
  70
    32
  0
VERTEX
  8
0
  5
B7E3
 10
157.426
 20
598.349
 30
0.000000
  70
    32
  0
VERTEX
  8
0
  5
B7E4
 10
157.356
 20
598.291
 30
0.000000
  70
    32
  0
VERTEX
  8
0
  5
B7E5
 10
157.288
 20
598.233
 30
0.000000
  70
    32
  0
VERTEX
  8
0
  5
B7E6
 10
157.221
 20
598.173
 30
0.000000
  70
    32
  0
VERTEX
  8
0
  5
B7E7
 10
157.156
 20
598.113
 30
0.000000
  70
    32
  0
VERTEX
  8
0
  5
B7E8
 10
157.092
 20
598.051
 30
0.000000
  70
    32
  0
VERTEX
  8
0
  5
B7E9
 10
157.031
 20
597.989
 30
0.000000
  70
    32
  0
VERTEX
  8
0
  5
B7EA
 10
156.971
 20
597.927
 30
0.000000
  70
    32
  0
VERTEX
  8
0
  5
B7EB
 10
156.913
 20
597.863
 30
0.000000
  70
    32
  0
VERTEX
  8
0
  5
B7EC
 10
156.856
 20
597.799
 30
0.000000
  70
    32
  0
VERTEX
  8
0
  5
B7ED
 10
156.802
 20
597.734
 30
0.000000
  70
    32
  0
VERTEX
  8
0
  5
B7EE
 10
156.749
 20
597.669
 30
0.000000
  70
    32
  0
VERTEX
  8
0
  5
B7EF
 10
156.698
 20
597.602
 30
0.000000
  70
    32
  0
VERTEX
  8
0
  5
B7F0
 10
156.649
 20
597.536
 30
0.000000
  70
    32
  0
VERTEX
  8
0
  5
B7F1
 10
156.601
 20
597.468
 30
0.000000
  70
    32
  0
VERTEX
  8
0
  5
B7F2
 10
156.556
 20
597.400
 30
0.000000
  70
    32
  0
VERTEX
  8
0
  5
B7F3
 10
156.513
 20
597.332
 30
0.000000
  70
    32
  0
VERTEX
  8
0
  5
B7F4
 10
156.471
 20
597.263
 30
0.000000
  70
    32
  0
VERTEX
  8
0
  5
B7F5
 10
156.431
 20
597.193
 30
0.000000
  70
    32
  0
VERTEX
  8
0
  5
B7F6
 10
156.394
 20
597.123
 30
0.000000
  70
    32
  0
VERTEX
  8
0
  5
B7F7
 10
156.358
 20
597.052
 30
0.000000
  70
    32
  0
VERTEX
  8
0
  5
B7F8
 10
156.324
 20
596.982
 30
0.000000
  70
    32
  0
VERTEX
  8
0
  5
B7F9
 10
156.293
 20
596.910
 30
0.000000
  70
    32
  0
VERTEX
  8
0
  5
B7FA
 10
156.263
 20
596.839
 30
0.000000
  70
    32
  0
VERTEX
  8
0
  5
B7FB
 10
156.235
 20
596.766
 30
0.000000
  70
    32
  0
VERTEX
  8
0
  5
B7FC
 10
156.209
 20
596.694
 30
0.000000
  70
    32
  0
VERTEX
  8
0
  5
B7FD
 10
156.186
 20
596.621
 30
0.000000
  70
    32
  0
VERTEX
  8
0
  5
B7FE
 10
156.164
 20
596.548
 30
0.000000
  70
    32
  0
VERTEX
  8
0
  5
B7FF
 10
156.144
 20
596.475
 30
0.000000
  70
    32
  0
VERTEX
  8
0
  5
B800
 10
156.127
 20
596.402
 30
0.000000
  70
    32
  0
VERTEX
  8
0
  5
B801
 10
156.111
 20
596.328
 30
0.000000
  70
    32
  0
VERTEX
  8
0
  5
B802
 10
156.098
 20
596.254
 30
0.000000
  70
    32
  0
VERTEX
  8
0
  5
B803
 10
156.086
 20
596.180
 30
0.000000
  70
    32
  0
VERTEX
  8
0
  5
B804
 10
156.077
 20
596.106
 30
0.000000
  70
    32
  0
VERTEX
  8
0
  5
B805
 10
156.070
 20
596.032
 30
0.000000
  70
    32
  0
VERTEX
  8
0
  5
B806
 10
156.065
 20
595.957
 30
0.000000
  70
    32
  0
VERTEX
  8
0
  5
B807
 10
156.062
 20
595.883
 30
0.000000
  70
    32
  0
VERTEX
  8
0
  5
B808
 10
156.061
 20
595.809
 30
0.000000
  70
    32
  0
SEQEND
  8
0
  5
B809
  0
ARC
  5
847F
  8
0
 10
168.12863383266171
 20
601.02282447600282
 30
0.0
 40
3.0
 50
234.9837682940298
 51
287.58973355011699
  0
DIMENSION
  5
8480
  8
0
  2
*D17
 10
19.999998979314569
 20
49.809736133146536
 30
0.0
 11
19.99999897931502
 21
349.8097361331466
 31
0.0
 12
-3179.6604329075681
 22
4118.321977175242
 32
0.0
 70
   128
  3
ISO-25
 13
71.060529034672072
 23
649.80973613314654
 33
0.0
 14
71.060529034672072
 24
49.809736133146536
 34
0.0
 50
90.0
1001
ACAD
1000
DSTYLE
1002
{
1070
   147
1040
5.0
1070
    42
1040
5.0
1070
    44
1040
5.0
1070
   140
1040
15.0
1070
    41
1040
10.0
1002
}
  0
ENDBLK
  5
8484
  8
0
  0
BLOCK
  8
0
  2
*D19
 70
     1
 10
0.0
 20
0.0
 30
0.0
  3
*D19
  1

  0
LINE
  5
AA1F
  8
0
 62
     0
 10
4112.0545137338031
 20
1365.4383833822751
 30
0.0
 11
4208.513606629318
 21
1365.4383833822751
 31
0.0
  0
LINE
  5
AA20
  8
0
 62
     0
 10
4093.9717740080951
 20
1207.018372388924
 30
0.0
 11
4208.513606629318
 21
1207.018372388924
 31
0.0
  0
LINE
  5
AA21
  8
0
 62
     0
 10
4203.513606629318
 20
1355.4383833822751
 30
0.0
 11
4203.513606629318
 21
1217.0183723889229
 31
0.0
  0
SOLID
  5
AA22
  8
0
 62
     0
 10
4201.846939962651
 20
1355.4383833822751
 30
0.0
 11
4205.180273295985
 21
1355.4383833822751
 31
0.0
 12
4203.513606629318
 22
1365.4383833822751
 32
0.0
 13
4203.513606629318
 23
1365.4383833822751
 33
0.0
  0
SOLID
  5
AA23
  8
0
 62
     0
 10
4201.846939962651
 20
1217.0183723889229
 30
0.0
 11
4205.180273295985
 21
1217.0183723889229
 31
0.0
 12
4203.513606629318
 22
1207.018372388924
 32
0.0
 13
4203.513606629318
 23
1207.018372388924
 33
0.0
  0
INSERT
  5
AA24
  8
0
  2
*U37
 10
0.0
 20
0.0
 30
0.0
  0
POINT
  5
AA25
  8
DEFPOINTS
 62
     0
 10
4107.0545137338022
 20
1365.4383833822751
 30
0.0
  0
POINT
  5
AA26
  8
DEFPOINTS
 62
     0
 10
4088.9717740080951
 20
1207.018372388924
 30
0.0
  0
POINT
  5
AA27
  8
DEFPOINTS
 62
     0
 10
4203.513606629318
 20
1207.018372388924
 30
0.0
  0
ENDBLK
  5
A520
  8
0
  0
BLOCK
  8
0
  2
*D20
 70
     1
 10
0.0
 20
0.0
 30
0.0
  3
*D20
  1

  0
LINE
  5
AA16
  8
0
 62
     0
 10
4108.513606629318
 20
1278.4383833822751
 30
0.0
 11
4158.5136137187656
 21
1278.4383833822751
 31
0.0
  0
LINE
  5
AA17
  8
0
 62
     0
 10
4093.9717740080951
 20
1207.018372388924
 30
0.0
 11
4158.5136137187656
 21
1207.018372388924
 31
0.0
  0
LINE
  5
AA18
  8
0
 62
     0
 10
4153.5136137187656
 20
1268.4383833822751
 30
0.0
 11
4153.5136137187656
 21
1217.0183723889229
 31
0.0
  0
SOLID
  5
AA19
  8
0
 62
     0
 10
4151.8469470520986
 20
1268.4383833822751
 30
0.0
 11
4155.1802803854334
 21
1268.4383833822751
 31
0.0
 12
4153.5136137187656
 22
1278.4383833822751
 32
0.0
 13
4153.5136137187656
 23
1278.4383833822751
 33
0.0
  0
SOLID
  5
AA1A
  8
0
 62
     0
 10
4151.8469470520986
 20
1217.0183723889229
 30
0.0
 11
4155.1802803854334
 21
1217.0183723889229
 31
0.0
 12
4153.5136137187656
 22
1207.018372388924
 32
0.0
 13
4153.5136137187656
 23
1207.018372388924
 33
0.0
  0
INSERT
  5
AA1B
  8
0
  2
*U36
 10
0.0
 20
0.0
 30
0.0
  0
POINT
  5
AA1C
  8
DEFPOINTS
 62
     0
 10
4103.513606629318
 20
1278.4383833822751
 30
0.0
  0
POINT
  5
AA1D
  8
DEFPOINTS
 62
     0
 10
4088.9717740080951
 20
1207.018372388924
 30
0.0
  0
POINT
  5
AA1E
  8
DEFPOINTS
 62
     0
 10
4153.5136137187656
 20
1207.018372388924
 30
0.0
  0
ENDBLK
  5
A5A1
  8
0
  0
BLOCK
  8
0
  2
*D21
 70
     1
 10
0.0
 20
0.0
 30
0.0
  3
*D21
  1

  0
LINE
  5
AA0D
  8
0
 62
     0
 10
3359.3644706590071
 20
1665.438383382271
 30
0.0
 11
3455.8235635545229
 21
1665.438383382271
 31
0.0
  0
LINE
  5
AA0E
  8
0
 62
     0
 10
3341.2817309333
 20
1207.018377186846
 30
0.0
 11
3455.8235635545229
 21
1207.018377186846
 31
0.0
  0
LINE
  5
AA0F
  8
0
 62
     0
 10
3450.8235635545238
 20
1655.4383833822719
 30
0.0
 11
3450.8235635545238
 21
1217.018377186846
 31
0.0
  0
SOLID
  5
AA10
  8
0
 62
     0
 10
3449.1568968878569
 20
1655.4383833822719
 30
0.0
 11
3452.490230221189
 21
1655.4383833822719
 31
0.0
 12
3450.8235635545238
 22
1665.438383382271
 32
0.0
 13
3450.8235635545238
 23
1665.438383382271
 33
0.0
  0
SOLID
  5
AA11
  8
0
 62
     0
 10
3449.1568968878569
 20
1217.018377186846
 30
0.0
 11
3452.490230221189
 21
1217.018377186846
 31
0.0
 12
3450.8235635545238
 22
1207.018377186846
 32
0.0
 13
3450.8235635545238
 23
1207.018377186846
 33
0.0
  0
INSERT
  5
AA12
  8
0
  2
*U35
 10
0.0
 20
0.0
 30
0.0
  0
POINT
  5
AA13
  8
DEFPOINTS
 62
     0
 10
3354.3644706590071
 20
1665.438383382271
 30
0.0
  0
POINT
  5
AA14
  8
DEFPOINTS
 62
     0
 10
3336.2817309332991
 20
1207.018377186846
 30
0.0
  0
POINT
  5
AA15
  8
DEFPOINTS
 62
     0
 10
3450.8235635545238
 20
1207.018377186846
 30
0.0
  0
ENDBLK
  5
A62A
  8
0
  0
BLOCK
  8
0
  2
*D22
 70
     1
 10
0.0
 20
0.0
 30
0.0
  3
*D22
  1

  0
LINE
  5
AA04
  8
0
 62
     0
 10
3355.8235635545229
 20
1278.4383881801971
 30
0.0
 11
3405.8235706439709
 21
1278.4383881801971
 31
0.0
  0
LINE
  5
AA05
  8
0
 62
     0
 10
3341.2817309333
 20
1207.018377186846
 30
0.0
 11
3405.8235706439709
 21
1207.018377186846
 31
0.0
  0
LINE
  5
AA06
  8
0
 62
     0
 10
3400.8235706439718
 20
1268.438388180198
 30
0.0
 11
3400.8235706439718
 21
1217.018377186846
 31
0.0
  0
SOLID
  5
AA07
  8
0
 62
     0
 10
3399.1569039773049
 20
1268.438388180198
 30
0.0
 11
3402.490237310637
 21
1268.438388180198
 31
0.0
 12
3400.8235706439718
 22
1278.4383881801971
 32
0.0
 13
3400.8235706439718
 23
1278.4383881801971
 33
0.0
  0
SOLID
  5
AA08
  8
0
 62
     0
 10
3399.1569039773049
 20
1217.018377186846
 30
0.0
 11
3402.490237310637
 21
1217.018377186846
 31
0.0
 12
3400.8235706439718
 22
1207.018377186846
 32
0.0
 13
3400.8235706439718
 23
1207.018377186846
 33
0.0
  0
INSERT
  5
AA09
  8
0
  2
*U34
 10
0.0
 20
0.0
 30
0.0
  0
POINT
  5
AA0A
  8
DEFPOINTS
 62
     0
 10
3350.823563554522
 20
1278.4383881801971
 30
0.0
  0
POINT
  5
AA0B
  8
DEFPOINTS
 62
     0
 10
3336.2817309332991
 20
1207.018377186846
 30
0.0
  0
POINT
  5
AA0C
  8
DEFPOINTS
 62
     0
 10
3400.8235706439718
 20
1207.018377186846
 30
0.0
  0
ENDBLK
  5
A636
  8
0
  0
BLOCK
  8
0
  2
*D23
 70
     1
 10
0.0
 20
0.0
 30
0.0
  3
*D23
  1

  0
LINE
  5
A9FB
  8
0
 62
     0
 10
3354.281858204919
 20
1256.4383833822719
 30
0.0
 11
3371.767388461526
 21
1256.4383833822719
 31
0.0
  0
LINE
  5
A9FC
  8
0
 62
     0
 10
3341.2817177125821
 20
1207.018370785406
 30
0.0
 11
3371.767388461526
 21
1207.018370785406
 31
0.0
  0
LINE
  5
A9FD
  8
0
 62
     0
 10
3366.767388461526
 20
1246.4383833822719
 30
0.0
 11
3366.767388461526
 21
1217.018370785406
 31
0.0
  0
SOLID
  5
A9FE
  8
0
 62
     0
 10
3365.10072179486
 20
1246.4383833822719
 30
0.0
 11
3368.434055128193
 21
1246.4383833822719
 31
0.0
 12
3366.767388461526
 22
1256.4383833822719
 32
0.0
 13
3366.767388461526
 23
1256.4383833822719
 33
0.0
  0
SOLID
  5
A9FF
  8
0
 62
     0
 10
3365.10072179486
 20
1217.018370785406
 30
0.0
 11
3368.434055128193
 21
1217.018370785406
 31
0.0
 12
3366.767388461526
 22
1207.018370785406
 32
0.0
 13
3366.767388461526
 23
1207.018370785406
 33
0.0
  0
INSERT
  5
AA00
  8
0
  2
*U33
 10
0.0
 20
0.0
 30
0.0
  0
POINT
  5
AA01
  8
DEFPOINTS
 62
     0
 10
3349.281858204919
 20
1256.4383833822719
 30
0.0
  0
POINT
  5
AA02
  8
DEFPOINTS
 62
     0
 10
3336.2817177125821
 20
1207.018370785406
 30
0.0
  0
POINT
  5
AA03
  8
DEFPOINTS
 62
     0
 10
3366.767388461526
 20
1207.018370785406
 30
0.0
  0
ENDBLK
  5
A684
  8
0
  0
BLOCK
  8
0
  2
*D24
 70
     1
 10
0.0
 20
0.0
 30
0.0
  3
*D24
  1

  0
LINE
  5
A9F2
  8
0
 62
     0
 10
4106.9719043540672
 20
1256.438381305546
 30
0.0
 11
4124.4574346106747
 21
1256.438381305546
 31
0.0
  0
LINE
  5
A9F3
  8
0
 62
     0
 10
4093.9717638617308
 20
1207.018368708681
 30
0.0
 11
4124.4574346106747
 21
1207.018368708681
 31
0.0
  0
LINE
  5
A9F4
  8
0
 62
     0
 10
4119.4574346106747
 20
1246.438381305546
 30
0.0
 11
4119.4574346106747
 21
1217.018368708681
 31
0.0
  0
SOLID
  5
A9F5
  8
0
 62
     0
 10
4117.7907679440068
 20
1246.438381305546
 30
0.0
 11
4121.1241012773417
 21
1246.438381305546
 31
0.0
 12
4119.4574346106747
 22
1256.438381305546
 32
0.0
 13
4119.4574346106747
 23
1256.438381305546
 33
0.0
  0
SOLID
  5
A9F6
  8
0
 62
     0
 10
4117.7907679440068
 20
1217.018368708681
 30
0.0
 11
4121.1241012773417
 21
1217.018368708681
 31
0.0
 12
4119.4574346106747
 22
1207.018368708681
 32
0.0
 13
4119.4574346106747
 23
1207.018368708681
 33
0.0
  0
INSERT
  5
A9F7
  8
0
  2
*U32
 10
0.0
 20
0.0
 30
0.0
  0
POINT
  5
A9F8
  8
DEFPOINTS
 62
     0
 10
4101.9719043540681
 20
1256.438381305546
 30
0.0
  0
POINT
  5
A9F9
  8
DEFPOINTS
 62
     0
 10
4088.9717638617308
 20
1207.018368708681
 30
0.0
  0
POINT
  5
A9FA
  8
DEFPOINTS
 62
     0
 10
4119.4574346106747
 20
1207.018368708681
 30
0.0
  0
ENDBLK
  5
A6DC
  8
0
  0
BLOCK
  8
0
  2
*U25
 70
     1
 10
0.0
 20
0.0
 30
0.0
  3
*U25
  1

  0
TEXT
  5
AA9F
  8
0
 10
3083.0039833846581
 20
1759.093370725484
 30
0.0
 40
15.0
  1
取り付け穴φ7mm
  0
LINE
  5
AAA0
  8
0
  6
BYBLOCK
 10
3080.6439833846589
 20
1765.093370725484
 30
0.0
 11
3081.003983384659
 21
1765.093370725484
 31
0.0
  0
POLYLINE
  5
AAA1
  8
0
  6
BYBLOCK
 66
     1
 10
0.0
 20
0.0
 30
0.0
  0
VERTEX
  5
AAA2
  8
0
  6
BYBLOCK
 10
2988.060063853311
 20
1672.509451194137
 30
0.0
  0
VERTEX
  5
AAA3
  8
0
  6
BYBLOCK
 10
3080.6439833846589
 20
1765.093370725484
 30
0.0
  0
SEQEND
  5
AAA4
  8
0
  6
BYBLOCK
  0
SOLID
  5
AAA5
  8
0
 10
2989.2385751552888
 20
1671.3309398921599
 30
0.0
 11
2980.9889960414462
 21
1665.438383382271
 31
0.0
 12
2986.8815525513342
 22
1673.687962496115
 32
0.0
 13
2986.8815525513342
 23
1673.687962496115
 33
0.0
  0
ENDBLK
  5
AAA7
  8
0
  0
BLOCK
  8
0
  2
*U26
 70
     1
 10
0.0
 20
0.0
 30
0.0
  3
*U26
  1

  0
TEXT
  5
AAA9
  8
0
 10
3083.0039823817901
 20
1372.093359262657
 30
0.0
 40
15.0
  1
取り付け穴φ7mm
  0
LINE
  5
AAAA
  8
0
  6
BYBLOCK
 10
3080.64398238179
 20
1378.093359262657
 30
0.0
 11
3081.003982381791
 21
1378.093359262657
 31
0.0
  0
POLYLINE
  5
AAAB
  8
0
  6
BYBLOCK
 66
     1
 10
0.0
 20
0.0
 30
0.0
  0
VERTEX
  5
AAAC
  8
0
  6
BYBLOCK
 10
2988.060062850444
 20
1285.509439731311
 30
0.0
  0
VERTEX
  5
AAAD
  8
0
  6
BYBLOCK
 10
3080.64398238179
 20
1378.093359262657
 30
0.0
  0
SEQEND
  5
AAAE
  8
0
  6
BYBLOCK
  0
SOLID
  5
AAAF
  8
0
 10
2989.2385741524208
 20
1284.330928429333
 30
0.0
 11
2980.9889950385782
 21
1278.438371919445
 31
0.0
 12
2986.8815515484662
 22
1286.6879510332881
 32
0.0
 13
2986.8815515484662
 23
1286.6879510332881
 33
0.0
  0
ENDBLK
  5
AAB1
  8
0
  0
BLOCK
  8
0
  2
*U27
 70
     1
 10
0.0
 20
0.0
 30
0.0
  3
*U27
  1

  0
TEXT
  5
AAB3
  8
0
 62
     0
 10
3647.7563208379652
 20
197.1236608738551
 30
0.0
 40
15.0
  1
70
  0
ENDBLK
  5
AAB5
  8
0
  0
BLOCK
  8
0
  2
*U28
 70
     1
 10
0.0
 20
0.0
 30
0.0
  3
*U28
  1

  0
TEXT
  5
AAB7
  8
0
 10
3083.0039805847068
 20
1881.9508895505739
 30
0.0
 40
15.0
  1
20mm伸縮調節可
  0
LINE
  5
AAB8
  8
0
  6
BYBLOCK
 10
3080.6439805847072
 20
1887.9508895505739
 30
0.0
 11
3081.0039805847082
 21
1887.9508895505739
 31
0.0
  0
POLYLINE
  5
AAB9
  8
0
  6
BYBLOCK
 66
     1
 10
0.0
 20
0.0
 30
0.0
  0
VERTEX
  5
AABA
  8
0
  6
BYBLOCK
 10
2988.0600610533602
 20
1795.366970019227
 30
0.0
  0
VERTEX
  5
AABB
  8
0
  6
BYBLOCK
 10
3080.6439805847072
 20
1887.9508895505739
 30
0.0
  0
SEQEND
  5
AABC
  8
0
  6
BYBLOCK
  0
SOLID
  5
AABD
  8
0
 10
2989.238572355338
 20
1794.1884587172499
 30
0.0
 11
2980.9889932414949
 21
1788.2959022073619
 31
0.0
 12
2986.8815497513829
 22
1796.545481321205
 32
0.0
 13
2986.8815497513829
 23
1796.545481321205
 33
0.0
  0
ENDBLK
  5
AABF
  8
0
  0
BLOCK
  8
0
  2
*U29
 70
     1
 10
0.0
 20
0.0
 30
0.0
  3
*U29
  1

  0
TEXT
  5
AAC1
  8
0
 10
3835.6940285309388
 20
1372.0933592626609
 30
0.0
 40
15.0
  1
取り付け穴φ7mm
  0
LINE
  5
AAC2
  8
0
  6
BYBLOCK
 10
3833.33402853094
 20
1378.0933592626609
 30
0.0
 11
3833.6940285309402
 21
1378.0933592626609
 31
0.0
  0
POLYLINE
  5
AAC3
  8
0
  6
BYBLOCK
 66
     1
 10
0.0
 20
0.0
 30
0.0
  0
VERTEX
  5
AAC4
  8
0
  6
BYBLOCK
 10
3740.7501089995931
 20
1285.5094397313139
 30
0.0
  0
VERTEX
  5
AAC5
  8
0
  6
BYBLOCK
 10
3833.33402853094
 20
1378.0933592626609
 30
0.0
  0
SEQEND
  5
AAC6
  8
0
  6
BYBLOCK
  0
SOLID
  5
AAC7
  8
0
 10
3741.9286203015699
 20
1284.3309284293371
 30
0.0
 11
3733.6790411877269
 21
1278.4383719194491
 31
0.0
 12
3739.5715976976162
 22
1286.6879510332919
 32
0.0
 13
3739.5715976976162
 23
1286.6879510332919
 33
0.0
  0
ENDBLK
  5
AAC9
  8
0
  0
BLOCK
  8
0
  2
*U30
 70
     1
 10
0.0
 20
0.0
 30
0.0
  3
*U30
  1

  0
TEXT
  5
AACB
  8
0
 10
3835.6940267338559
 20
1581.950889550578
 30
0.0
 40
15.0
  1
20mm伸縮調節可
  0
LINE
  5
AACC
  8
0
  6
BYBLOCK
 10
3833.3340267338572
 20
1587.950889550578
 30
0.0
 11
3833.6940267338559
 21
1587.950889550578
 31
0.0
  0
POLYLINE
  5
AACD
  8
0
  6
BYBLOCK
 66
     1
 10
0.0
 20
0.0
 30
0.0
  0
VERTEX
  5
AACE
  8
0
  6
BYBLOCK
 10
3740.7501072025088
 20
1495.3669700192311
 30
0.0
  0
VERTEX
  5
AACF
  8
0
  6
BYBLOCK
 10
3833.3340267338572
 20
1587.950889550578
 30
0.0
  0
SEQEND
  5
AAD0
  8
0
  6
BYBLOCK
  0
SOLID
  5
AAD1
  8
0
 10
3741.928618504488
 20
1494.1884587172531
 30
0.0
 11
3733.679039390644
 21
1488.2959022073651
 31
0.0
 12
3739.571595900532
 22
1496.5454813212091
 32
0.0
 13
3739.571595900532
 23
1496.5454813212091
 33
0.0
  0
ENDBLK
  5
AAD3
  8
0
  0
BLOCK
  8
0
  2
*U31
 70
     1
 10
0.0
 20
0.0
 30
0.0
  3
*U31
  1

  0
TEXT
  5
AAD5
  8
0
 62
     0
 10
3194.6604318868822
 20
-3786.0122410420959
 30
0.0
 40
15.0
  1
600
 50
90.0
  0
ENDBLK
  5
AAD7
  8
0
  0
BLOCK
  8
0
  2
*U32
 70
     1
 10
0.0
 20
0.0
 30
0.0
  3
*U32
  1

  0
TEXT
  5
AAD9
  8
0
 62
     0
 10
4114.4574346106747
 20
1219.2283750071131
 30
0.0
 40
15.0
  1
49
 50
90.0
  0
ENDBLK
  5
AADB
  8
0
  0
BLOCK
  8
0
  2
*U33
 70
     1
 10
0.0
 20
0.0
 30
0.0
  3
*U33
  1

  0
TEXT
  5
AADD
  8
0
 62
     0
 10
3361.767388461526
 20
1219.228377083839
 30
0.0
 40
15.0
  1
49
 50
90.0
  0
ENDBLK
  5
AADF
  8
0
  0
BLOCK
  8
0
  2
*U34
 70
     1
 10
0.0
 20
0.0
 30
0.0
  3
*U34
  1

  0
TEXT
  5
AAE1
  8
0
 62
     0
 10
3395.8235706439709
 20
1232.7283850824849
 30
0.0
 40
15.0
  1
71
 50
90.0
  0
ENDBLK
  5
AAE3
  8
0
  0
BLOCK
  8
0
  2
*U35
 70
     1
 10
0.0
 20
0.0
 30
0.0
  3
*U35
  1

  0
TEXT
  5
AAE5
  8
0
 62
     0
 10
3445.8235635545229
 20
1416.2283802845591
 30
0.0
 40
15.0
  1
458
 50
90.0
  0
ENDBLK
  5
AAE7
  8
0
  0
BLOCK
  8
0
  2
*U36
 70
     1
 10
0.0
 20
0.0
 30
0.0
  3
*U36
  1

  0
TEXT
  5
AAE9
  8
0
 62
     0
 10
4148.5136137187656
 20
1232.728380284562
 30
0.0
 40
15.0
  1
71
 50
90.0
  0
ENDBLK
  5
AAEB
  8
0
  0
BLOCK
  8
0
  2
*U37
 70
     1
 10
0.0
 20
0.0
 30
0.0
  3
*U37
  1

  0
TEXT
  5
AAED
  8
0
 62
     0
 10
4198.513606629318
 20
1268.728377885599
 30
0.0
 40
15.0
  1
158
 50
90.0
  0
ENDBLK
  5
AAEF
  8
0
  0
BLOCK
  8
0
  2
*U38
 70
     1
 10
0.0
 20
0.0
 30
0.0
  3
*U38
  1

  0
TEXT
  5
AAF1
  8
0
 62
     0
 10
3777.826584908355
 20
1427.9383833822751
 30
0.0
 40
15.0
  1
20
 50
90.0
  0
ENDBLK
  5
AAF3
  8
0
  0
BLOCK
  8
0
  2
*U39
 70
     1
 10
0.0
 20
0.0
 30
0.0
  3
*U39
  1

  0
TEXT
  5
AAF5
  8
0
 62
     0
 10
4065.4717729437898
 20
1577.0183723889229
 30
0.0
 40
15.0
  1
27
  0
ENDBLK
  5
AAF7
  8
0
  0
BLOCK
  8
0
  2
*U40
 70
     1
 10
0.0
 20
0.0
 30
0.0
  3
*U40
  1

  0
TEXT
  5
AAF9
  8
0
 62
     0
 10
3687.4290383150092
 20
1572.5787710568029
 30
0.0
 40
15.0
  1
70
  0
ENDBLK
  5
AAFB
  8
0
  0
BLOCK
  8
0
  2
*U41
 70
     1
 10
0.0
 20
0.0
 30
0.0
  3
*U41
  1

  0
TEXT
  5
AAFD
  8
0
 62
     0
 10
3614.5282906129851
 20
1334.5183723875141
 30
0.0
 40
15.0
  1
295
 50
90.0
  0
ENDBLK
  5
AAFF
  8
0
  0
BLOCK
  8
0
  2
*U42
 70
     1
 10
0.0
 20
0.0
 30
0.0
  3
*U42
  1

  0
TEXT
  5
AB01
  8
0
 62
     0
 10
3580.4373724542138
 20
1347.0183723875109
 30
0.0
 40
15.0
  1
315
 50
90.0
  0
ENDBLK
  5
AB03
  8
0
  0
BLOCK
  8
0
  2
*U43
 70
     1
 10
0.0
 20
0.0
 30
0.0
  3
*U43
  1

  0
TEXT
  5
AB05
  8
0
 62
     0
 10
3025.1365387592059
 20
1727.9383833822719
 30
0.0
 40
15.0
  1
20
 50
90.0
  0
ENDBLK
  5
AB07
  8
0
  0
BLOCK
  8
0
  2
*U44
 70
     1
 10
0.0
 20
0.0
 30
0.0
  3
*U44
  1

  0
TEXT
  5
AB09
  8
0
 62
     0
 10
3312.7817267946411
 20
1877.018372388919
 30
0.0
 40
15.0
  1
27
  0
ENDBLK
  5
AB0B
  8
0
  0
BLOCK
  8
0
  2
*U45
 70
     1
 10
0.0
 20
0.0
 30
0.0
  3
*U45
  1

  0
TEXT
  5
AB0D
  8
0
 62
     0
 10
2934.7389921658601
 20
1872.578771056799
 30
0.0
 40
15.0
  1
70
  0
ENDBLK
  5
AB0F
  8
0
  0
BLOCK
  8
0
  2
*U46
 70
     1
 10
0.0
 20
0.0
 30
0.0
  3
*U46
  1

  0
TEXT
  5
AB11
  8
0
 62
     0
 10
2861.8382444638341
 20
1484.5183723875109
 30
0.0
 40
15.0
  1
595
 50
90.0
  0
ENDBLK
  5
AB13
  8
0
  0
BLOCK
  8
0
  2
*U47
 70
     1
 10
0.0
 20
0.0
 30
0.0
  3
*U47
  1

  0
TEXT
  5
AB15
  8
0
 62
     0
 10
2827.7473263050651
 20
1545.5183723889211
 30
0.0
 40
15.0
  1
615
 50
90.0
  0
ENDBLK
  5
AB17
  8
0
  0
ENDSEC
  0
SECTION
  2
ENTITIES
  0
LINE
  5
32EA
  8
0
 10
2968.9889960414462
 20
1772.4383833822719
 30
0.0
 11
2968.9889960414462
 21
1241.438383382271
 31
0.0
  0
LINE
  5
32EB
  8
0
 10
2971.9889960414462
 20
1238.4383833822719
 30
0.0
 11
2980.9889960414462
 21
1238.4383833822719
 31
0.0
  0
ARC
  5
32EC
  8
0
 10
2971.9889960414462
 20
1241.438383382271
 30
0.0
 40
3.0
 50
180.0
 51
270.0
  0
LINE
  5
32ED
  8
0
 10
2980.9889960414462
 20
1238.4383833822719
 30
0.0
 11
2980.9889960414462
 21
1775.4383833822719
 31
0.0
  0
LINE
  5
32EE
  8
0
 10
2980.9889960414462
 20
1775.4383833822719
 30
0.0
 11
2971.9889960414462
 21
1775.4383833822719
 31
0.0
  0
LINE
  5
32EF
  8
0
 10
2978.9889960414462
 20
1238.4383833822719
 30
0.0
 11
2978.9889960414471
 21
1228.809672298125
 31
0.0
  0
ARC
  5
32F0
  8
0
 10
2971.9889960414471
 20
1228.809672298125
 30
0.0
 40
7.0
 50
284.99999999999437
 51
0.0
  0
LINE
  5
32F1
  8
0
 10
2973.800729357165
 20
1222.048191514102
 30
0.0
 11
2918.2173469329341
 21
1207.1546690809389
 31
0.0
  0
ARC
  5
32F2
  8
0
 10
2917.1820707525249
 20
1211.0183723860951
 30
0.0
 40
4.0
 50
195.0000000000087
 51
284.99999999999437
  0
LINE
  5
32F3
  8
0
 10
2973.9889960414462
 20
1238.4383833822719
 30
0.0
 11
2973.9889960414462
 21
1232.6463072380191
 31
0.0
  0
ARC
  5
32F4
  8
0
 10
2966.9889960414462
 20
1232.6463072380191
 30
0.0
 40
7.0
 50
289.80342482187137
 51
0.0
  0
ARC
  5
32F5
  8
0
 10
2968.6829668426458
 20
1227.9420046409621
 30
0.0
 40
2.0
 50
259.35247538471208
 51
289.80342482187137
  0
LINE
  5
32F6
  8
0
 10
2968.3134336550661
 20
1225.9764397798399
 30
0.0
 11
2962.4364187593642
 21
1227.081339491278
 31
0.0
  0
ARC
  5
32F7
  8
0
 10
2962.066885571785
 20
1225.115774630156
 30
0.0
 40
2.0
 50
79.352475384712079
 51
104.9999999999944
  0
ARC
  5
32F8
  8
0
 10
2923.2364447553618
 20
1211.605360830421
 30
0.0
 40
5.0
 50
104.9999999999944
 51
194.9999999999944
  0
LINE
  5
32F9
  8
0
 10
2919.183272759225
 20
1207.4134881260411
 30
0.0
 11
2918.4068156239168
 21
1210.3112656049079
 31
0.0
  0
LINE
  5
32FA
  8
0
 10
2914.0254742285551
 20
1211.207841077076
 30
0.0
 11
2911.9549218677348
 21
1218.9352476873889
 31
0.0
  0
ARC
  5
32FB
  8
0
 10
2917.8891775337111
 20
1212.2431172574859
 30
0.0
 40
4.0
 50
195.0000000000087
 51
284.99999999999437
  0
LINE
  5
32FC
  8
0
 10
2913.318367447368
 20
1209.9830962056849
 30
0.0
 11
2910.9889960414462
 21
1218.6764286422861
 31
0.0
  0
LINE
  5
32FD
  8
0
 10
2910.9889960414462
 20
1218.6764286422861
 30
0.0
 11
2911.9549218677348
 21
1218.9352476873889
 31
0.0
  0
LINE
  5
32FE
  8
0
 10
2918.9244537141221
 20
1208.37941395233
 30
0.0
 11
2918.924453714123
 21
1208.37941395233
 31
0.0
  0
LINE
  5
32FF
  8
0
 10
2961.5492474815528
 20
1227.0476262827269
 30
0.0
 11
2921.9423495298488
 21
1216.434989961866
 31
0.0
  0
LINE
  5
3300
  8
0
 10
2971.9889960414462
 20
1775.4383833822719
 30
0.0
 11
2980.9889960414462
 21
1775.4383833822719
 31
0.0
  0
ARC
  5
3301
  8
0
 10
2971.9889960414462
 20
1772.4383833822719
 30
0.0
 40
3.0
 50
90.0
 51
180.0
  0
LINE
  5
3302
  8
0
 10
2978.9889960414462
 20
1775.4383833822719
 30
0.0
 11
2978.9889960414471
 21
1780.228404835017
 31
0.0
  0
ARC
  5
3303
  8
0
 10
2971.9889960414471
 20
1780.228404835017
 30
0.0
 40
7.0
 50
0.0
 51
75.000000000005556
  0
LINE
  5
3304
  8
0
 10
2973.800729357165
 20
1786.98988561904
 30
0.0
 11
2918.2173469329341
 21
1801.883408052202
 31
0.0
  0
ARC
  5
3305
  8
0
 10
2917.1820707525249
 20
1798.019704747046
 30
0.0
 40
4.0
 50
75.000000000005556
 51
165.00000000000551
  0
LINE
  5
3306
  8
0
 10
2973.9889960414462
 20
1775.4383833822719
 30
0.0
 11
2973.9889960414462
 21
1776.391769895122
 31
0.0
  0
ARC
  5
3307
  8
0
 10
2966.9889960414462
 20
1776.391769895122
 30
0.0
 40
7.0
 50
0.0
 51
70.196575178182002
  0
ARC
  5
3308
  8
0
 10
2968.6829668426458
 20
1781.0960724921799
 30
0.0
 40
2.0
 50
70.196575178182002
 51
100.64752461533909
  0
LINE
  5
3309
  8
0
 10
2968.3134336550661
 20
1783.061637353301
 30
0.0
 11
2962.4364187593642
 21
1781.9567376418629
 31
0.0
  0
ARC
  5
330A
  8
0
 10
2962.066885571785
 20
1783.9223025029851
 30
0.0
 40
2.0
 50
255.0000000000056
 51
280.64752461533908
  0
ARC
  5
330B
  8
0
 10
2923.2364447553618
 20
1797.4327163027201
 30
0.0
 40
5.0
 50
165.00000000000551
 51
255.0000000000056
  0
LINE
  5
330C
  8
0
 10
2919.183272759225
 20
1801.6245890071
 30
0.0
 11
2918.4068156239168
 21
1798.7268115282329
 31
0.0
  0
LINE
  5
330D
  8
0
 10
2914.0254742285551
 20
1797.8302360560649
 30
0.0
 11
2911.9549218677348
 21
1790.1028294457519
 31
0.0
  0
ARC
  5
330E
  8
0
 10
2917.8891775337111
 20
1796.794959875655
 30
0.0
 40
4.0
 50
75.000000000005556
 51
165.00000000000551
  0
LINE
  5
330F
  8
0
 10
2913.318367447368
 20
1799.054980927456
 30
0.0
 11
2910.9889960414462
 21
1790.361648490855
 31
0.0
  0
LINE
  5
3310
  8
0
 10
2910.9889960414462
 20
1790.361648490855
 30
0.0
 11
2911.9549218677348
 21
1790.1028294457519
 31
0.0
  0
LINE
  5
3311
  8
0
 10
2918.9244537141221
 20
1800.6586631808109
 30
0.0
 11
2918.924453714123
 21
1800.6586631808109
 31
0.0
  0
LINE
  5
3312
  8
0
 10
2961.5492474815528
 20
1781.9904508504151
 30
0.0
 11
2921.9423495298488
 21
1792.6030871712751
 31
0.0
  0
LINE
  5
3314
  8
0
 10
2980.9889939295572
 20
1795.4383833822719
 30
0.0
 11
2971.9889939295572
 21
1795.4383833822719
 31
0.0
  0
LINE
  5
3315
  8
0
 10
2971.9889939295572
 20
1795.4383833822719
 30
0.0
 11
2980.9889939295572
 21
1795.4383833822719
 31
0.0
  0
ARC
  5
3316
  8
0
 10
2971.9889939295572
 20
1792.4383833822719
 30
0.0
 40
3.0
 50
90.0
 51
180.0
  0
LINE
  5
3317
  8
0
 10
2978.9889939295558
 20
1795.4383833822719
 30
0.0
 11
2978.9889939295581
 21
1800.2284048350159
 31
0.0
  0
ARC
  5
3318
  8
0
 10
2971.9889939295581
 20
1800.2284048350159
 30
0.0
 40
7.0
 50
0.0
 51
75.000000000005556
  0
LINE
  5
3319
  8
0
 10
2973.800727245276
 20
1806.98988561904
 30
0.0
 11
2918.2173448210451
 21
1821.8834080522031
 31
0.0
  0
ARC
  5
331A
  8
0
 10
2917.182068640635
 20
1818.019704747046
 30
0.0
 40
4.0
 50
75.000000000005556
 51
165.00000000000551
  0
LINE
  5
331B
  8
0
 10
2973.9889939295572
 20
1795.4383833822719
 30
0.0
 11
2973.9889939295572
 21
1796.391769895122
 31
0.0
  0
ARC
  5
331C
  8
0
 10
2966.9889939295572
 20
1796.391769895122
 30
0.0
 40
7.0
 50
0.0
 51
70.196575178182002
  0
ARC
  5
331D
  8
0
 10
2968.6829647307568
 20
1801.0960724921799
 30
0.0
 40
2.0
 50
70.196575178182002
 51
100.64752461533909
  0
LINE
  5
331E
  8
0
 10
2968.3134315431771
 20
1803.061637353301
 30
0.0
 11
2962.4364166474752
 21
1801.9567376418629
 31
0.0
  0
ARC
  5
331F
  8
0
 10
2962.0668834598951
 20
1803.9223025029851
 30
0.0
 40
2.0
 50
255.0000000000056
 51
280.64752461533908
  0
ARC
  5
3320
  8
0
 10
2923.2364426434729
 20
1817.432716302721
 30
0.0
 40
5.0
 50
165.00000000000551
 51
255.0000000000056
  0
LINE
  5
3321
  8
0
 10
2919.183270647336
 20
1821.6245890071
 30
0.0
 11
2918.4068135120278
 21
1818.7268115282329
 31
0.0
  0
LINE
  5
3322
  8
0
 10
2914.0254721166648
 20
1817.830236056066
 30
0.0
 11
2911.9549197558458
 21
1810.1028294457531
 31
0.0
  0
ARC
  5
3323
  8
0
 10
2917.8891754218221
 20
1816.794959875655
 30
0.0
 40
4.0
 50
75.000000000005556
 51
165.00000000000551
  0
LINE
  5
3324
  8
0
 10
2913.318365335479
 20
1819.0549809274571
 30
0.0
 11
2910.9889939295572
 21
1810.361648490855
 31
0.0
  0
LINE
  5
3325
  8
0
 10
2910.9889939295572
 20
1810.361648490855
 30
0.0
 11
2911.9549197558458
 21
1810.1028294457531
 31
0.0
  0
LINE
  5
3326
  8
0
 10
2918.9244516022331
 20
1820.6586631808109
 30
0.0
 11
2918.9244516022331
 21
1820.6586631808109
 31
0.0
  0
LINE
  5
3327
  8
0
 10
2961.5492453696629
 20
1801.9904508504139
 30
0.0
 11
2921.9423474179598
 21
1812.6030871712751
 31
0.0
  0
LINE
  5
3328
  8
0
 10
2968.9889939295572
 20
1792.4383833822719
 30
0.0
 11
2968.9889939295572
 21
1789.0332029946269
 31
0.0
  0
LINE
  5
3329
  8
0
 10
2980.9889939295572
 20
1795.4383833822719
 30
0.0
 11
2980.9889939295572
 21
1788.2959016099401
 31
0.0
  0
CIRCLE
  5
332A
  8
0
 10
2974.4889960414462
 20
1758.438383382271
 30
0.0
 40
4.0
  0
CIRCLE
  5
332B
  8
0
 10
2974.4889960414462
 20
1743.4383833822719
 30
0.0
 40
4.0
  0
DIMENSION
  5
332C
  8
0
  2
*D3
 10
2832.7473263050651
 20
1207.0183723861001
 30
0.0
 11
2832.7473263050651
 21
1563.0183723889211
 31
0.0
 70
   128
 13
2917.078835458788
 23
1822.0183723889199
 33
0.0
 14
2917.18207721824
 24
1207.0183723861001
 34
0.0
 50
90.0
1001
ACAD
1000
DSTYLE
1002
{
1070
   147
1040
5.0
1070
    42
1040
5.0
1070
    44
1040
5.0
1070
   140
1040
15.0
1070
    41
1040
10.0
1002
}
  0
DIMENSION
  5
332D
  8
0
  2
*D4
 10
2866.8382444638351
 20
1207.0183723861001
 30
0.0
 11
2854.3382444638351
 21
1504.5183723875109
 31
0.0
 70
     0
 13
2917.2853039343722
 23
1802.0183723889199
 33
0.0
 14
2917.1820772183328
 24
1207.0183723861001
 34
0.0
 50
90.0
1001
ACAD
1000
DSTYLE
1002
{
1070
   147
1040
5.0
1070
    42
1040
5.0
1070
    44
1040
5.0
1070
   140
1040
15.0
1070
    41
1040
10.0
1002
}
  0
INSERT
  5
332E
  8
0
  2
*U25
 10
0.0
 20
0.0
 30
0.0
1001
ACAD_MLEADERVER
1070
     2
  0
INSERT
  5
332F
  8
0
  2
*U26
 10
0.0
 20
0.0
 30
0.0
1001
ACAD_MLEADERVER
1070
     2
  0
DIMENSION
  5
3330
  8
0
  2
*D5
 10
2980.9889939295572
 20
1867.578771056799
 30
0.0
 11
2945.9889921658601
 21
1880.078771056799
 31
0.0
 70
     0
 13
2910.9889904021629
 23
1810.3616484908571
 33
0.0
 14
2980.9889939295572
 24
1795.4383833822719
 34
0.0
1001
ACAD
1000
DSTYLE
1002
{
1070
    41
1040
10.0
1070
    42
1040
5.0
1070
    44
1040
5.0
1070
   147
1040
5.0
1070
   140
1040
15.0
1002
}
  0
LINE
  5
3331
  8
0
 10
3311.7817278589459
 20
1775.4383833822719
 30
0.0
 11
3311.7817278589459
 21
1238.4383833822719
 31
0.0
  0
LINE
  5
3332
  8
0
 10
3311.7817278589459
 20
1775.4383833822719
 30
0.0
 11
3338.7817278589459
 21
1775.4383833822719
 31
0.0
  0
LINE
  5
3333
  8
0
 10
3338.7817278589459
 20
1775.4383833822719
 30
0.0
 11
3338.7817278589459
 21
1238.4383833822719
 31
0.0
  0
LINE
  5
3334
  8
0
 10
3338.7817278589459
 20
1238.4383833822719
 30
0.0
 11
3311.7817278589459
 21
1238.4383833822719
 31
0.0
  0
LINE
  5
3335
  8
0
 10
3314.2817278589459
 20
1775.4383833822719
 30
0.0
 11
3314.2817278589459
 21
1802.0183723889199
 31
0.0
  0
LINE
  5
3336
  8
0
 10
3314.2817278589459
 20
1802.0183723889199
 30
0.0
 11
3336.2817278589459
 21
1802.0183723889199
 31
0.0
  0
LINE
  5
3337
  8
0
 10
3336.2817278589459
 20
1802.0183723889199
 30
0.0
 11
3336.2817278589459
 21
1775.4383833822719
 31
0.0
  0
LINE
  5
3338
  8
0
 10
3314.2817278589459
 20
1238.4383833822719
 30
0.0
 11
3314.2817278589459
 21
1207.0183723889199
 31
0.0
  0
LINE
  5
3339
  8
0
 10
3314.2817278589459
 20
1207.0183723889199
 30
0.0
 11
3336.2817278589459
 21
1207.0183723889199
 31
0.0
  0
LINE
  5
333A
  8
0
 10
3336.2817278589459
 20
1207.0183723889199
 30
0.0
 11
3336.2817278589459
 21
1238.4383833822719
 31
0.0
  0
LINE
  5
333B
  8
0
 10
3314.2817278589459
 20
1807.0183723889199
 30
0.0
 11
3314.2817278589459
 21
1822.018372388919
 31
0.0
  0
LINE
  5
333C
  8
0
 10
3314.2817278589459
 20
1822.018372388919
 30
0.0
 11
3336.2817278589459
 21
1822.018372388919
 31
0.0
  0
LINE
  5
333D
  8
0
 10
3336.2817278589459
 20
1822.018372388919
 30
0.0
 11
3336.2817278589459
 21
1807.0183723889199
 31
0.0
  0
ARC
  5
333E
  8
0
 10
3325.2817278589459
 20
1665.438383382271
 30
0.0
 40
3.5
 50
0.0
 51
180.0
  0
CIRCLE
  5
333F
  8
0
 10
3325.2817278589459
 20
1278.4383833822719
 30
0.0
 40
3.5
  0
ARC
  5
3340
  8
0
 10
3325.2817278589459
 20
1650.938383382271
 30
0.0
 40
6.0
 50
125.6853347126402
 51
54.314665287359773
  0
LINE
  5
3341
  8
0
 10
3321.7817278589459
 20
1665.438383382271
 30
0.0
 11
3321.7817278589459
 21
1655.811780554676
 31
0.0
  0
LINE
  5
3342
  8
0
 10
3328.7817278589459
 20
1665.438383382271
 30
0.0
 11
3328.7817278589459
 21
1655.811780554676
 31
0.0
  0
CIRCLE
  5
3343
  8
0
 10
3325.2817278589459
 20
1674.938383382271
 30
0.0
 40
1.5
  0
LINE
  5
3344
  8
0
 10
3325.2817278589459
 20
1674.938383382271
 30
0.0
 11
3325.25425616747
 21
1681.938329475362
 31
0.0
  0
CIRCLE
  5
3345
  8
0
 10
3325.25425616747
 20
1681.938329475362
 30
0.0
 40
1.5
  0
CIRCLE
  5
339F
  8
0
 10
3325.2817278589459
 20
1256.4383833822719
 30
0.0
 40
3.5
  0
LINE
  5
33A0
  8
0
 10
2933.2658346257158
 20
1665.4383833822719
 30
0.0
 11
3354.69958226382
 21
1665.438383382271
 31
0.0
  0
LINE
  5
33AA
  8
0
 10
2940.4144716860651
 20
1278.438371919445
 30
0.0
 11
3350.1495427158552
 21
1278.4383880284861
 31
0.0
  0
LINE
  5
33AB
  8
0
 10
3349.281858204919
 20
1256.4383833822719
 30
0.0
 11
2940.4144716860651
 21
1256.4383833822719
 31
0.0
  0
DIMENSION
  5
45E0
  8
0
  2
*D8
 10
3338.7817278589459
 20
1872.018372388919
 30
0.0
 11
3325.2817267946411
 21
1872.018372388919
 31
0.0
 70
   128
 13
3311.7817257303359
 23
1822.018372388919
 33
0.0
 14
3338.7817278589459
 24
1822.018372388919
 34
0.0
1001
ACAD
1000
DSTYLE
1002
{
1070
    41
1040
10.0
1070
    42
1040
5.0
1070
    44
1040
5.0
1070
   147
1040
5.0
1070
   140
1040
15.0
1002
}
  0
DIMENSION
  5
4981
  8
0
  2
*D11
 10
3030.1365387592068
 20
1775.4383833822719
 30
0.0
 11
3030.1365387592059
 21
1739.1883833822719
 31
0.0
 70
   128
 13
2996.3986619564971
 23
1795.4383833822719
 33
0.0
 14
2996.3986619564971
 24
1775.4383833822719
 34
0.0
 50
90.0
1001
ACAD
1000
DSTYLE
1002
{
1070
   147
1040
5.0
1070
    42
1040
5.0
1070
    44
1040
5.0
1070
   140
1040
15.0
1070
    41
1040
10.0
1002
}
  0
INSERT
  5
49F0
  8
0
  2
*U28
 10
0.0
 20
0.0
 30
0.0
1001
ACAD_MLEADERVER
1070
     2
  0
LINE
  5
5768
  8
0
 10
3721.6790421905962
 20
1472.4383833822751
 30
0.0
 11
3721.6790421905962
 21
1241.4383833822751
 31
0.0
  0
LINE
  5
5769
  8
0
 10
3724.6790421905962
 20
1238.4383833822751
 30
0.0
 11
3733.6790421905948
 21
1238.4383833822751
 31
0.0
  0
ARC
  5
576A
  8
0
 10
3724.6790421905962
 20
1241.4383833822751
 30
0.0
 40
3.0
 50
180.0
 51
270.0
  0
LINE
  5
576B
  8
0
 10
3733.6790421905948
 20
1238.4383833822751
 30
0.0
 11
3733.6790421905948
 21
1475.4383833822751
 31
0.0
  0
LINE
  5
576C
  8
0
 10
3733.6790421905948
 20
1475.4383833822751
 30
0.0
 11
3724.6790421905962
 21
1475.4383833822751
 31
0.0
  0
LINE
  5
576D
  8
0
 10
3731.6790421905962
 20
1238.4383833822751
 30
0.0
 11
3731.6790421905962
 21
1228.8096722981279
 31
0.0
  0
ARC
  5
576E
  8
0
 10
3724.6790421905962
 20
1228.8096722981279
 30
0.0
 40
7.0
 50
284.99999999999437
 51
0.0
  0
LINE
  5
576F
  8
0
 10
3726.4907755063141
 20
1222.0481915141049
 30
0.0
 11
3670.9073930820841
 21
1207.1546690809421
 31
0.0
  0
ARC
  5
5770
  8
0
 10
3669.872116901674
 20
1211.018372386098
 30
0.0
 40
4.0
 50
194.9999999999944
 51
284.99999999999437
  0
LINE
  5
5771
  8
0
 10
3726.6790421905948
 20
1238.4383833822751
 30
0.0
 11
3726.6790421905948
 21
1232.6463072380229
 31
0.0
  0
ARC
  5
5772
  8
0
 10
3719.6790421905948
 20
1232.6463072380229
 30
0.0
 40
7.0
 50
289.803424821882
 51
0.0
  0
ARC
  5
5773
  8
0
 10
3721.3730129917949
 20
1227.942004640965
 30
0.0
 40
2.0
 50
259.35247538471452
 51
289.803424821882
  0
LINE
  5
5774
  8
0
 10
3721.0034798042152
 20
1225.976439779844
 30
0.0
 11
3715.1264649085142
 21
1227.0813394912809
 31
0.0
  0
ARC
  5
5775
  8
0
 10
3714.7569317209341
 20
1225.115774630159
 30
0.0
 40
2.0
 50
79.352475384714481
 51
104.9999999999944
  0
ARC
  5
5776
  8
0
 10
3675.9264909045119
 20
1211.6053608304239
 30
0.0
 40
5.0
 50
104.9999999999944
 51
194.9999999999944
  0
LINE
  5
5777
  8
0
 10
3671.8733189083741
 20
1207.413488126045
 30
0.0
 11
3671.0968617730659
 21
1210.311265604912
 31
0.0
  0
LINE
  5
5778
  8
0
 10
3666.7155203777029
 20
1211.20784107708
 30
0.0
 11
3664.6449680168839
 21
1218.935247687393
 31
0.0
  0
ARC
  5
5779
  8
0
 10
3670.5792236828602
 20
1212.24311725749
 30
0.0
 40
4.0
 50
194.9999999999944
 51
284.99999999999437
  0
LINE
  5
577A
  8
0
 10
3666.0084135965171
 20
1209.9830962056881
 30
0.0
 11
3663.6790421905962
 21
1218.6764286422899
 31
0.0
  0
LINE
  5
577B
  8
0
 10
3663.6790421905962
 20
1218.6764286422899
 30
0.0
 11
3664.6449680168839
 21
1218.935247687393
 31
0.0
  0
LINE
  5
577C
  8
0
 10
3671.6144998632708
 20
1208.3794139523341
 30
0.0
 11
3671.6144998632722
 21
1208.3794139523341
 31
0.0
  0
LINE
  5
577D
  8
0
 10
3714.2392936307019
 20
1227.0476262827301
 30
0.0
 11
3674.6323956789988
 21
1216.4349899618701
 31
0.0
  0
LINE
  5
577E
  8
0
 10
3724.6790421905962
 20
1475.4383833822751
 30
0.0
 11
3733.6790421905948
 21
1475.4383833822751
 31
0.0
  0
ARC
  5
577F
  8
0
 10
3724.6790421905962
 20
1472.4383833822751
 30
0.0
 40
3.0
 50
90.0
 51
180.0
  0
LINE
  5
5780
  8
0
 10
3731.6790421905962
 20
1475.4383833822751
 30
0.0
 11
3731.6790421905962
 21
1480.22840483502
 31
0.0
  0
ARC
  5
5781
  8
0
 10
3724.6790421905962
 20
1480.22840483502
 30
0.0
 40
7.0
 50
0.0
 51
75.000000000005556
  0
LINE
  5
5782
  8
0
 10
3726.4907755063141
 20
1486.989885619043
 30
0.0
 11
3670.9073930820841
 21
1501.8834080522061
 31
0.0
  0
ARC
  5
5783
  8
0
 10
3669.872116901674
 20
1498.0197047470499
 30
0.0
 40
4.0
 50
75.000000000005556
 51
165.00000000000551
  0
LINE
  5
5784
  8
0
 10
3726.6790421905948
 20
1475.4383833822751
 30
0.0
 11
3726.6790421905948
 21
1476.3917698951259
 31
0.0
  0
ARC
  5
5785
  8
0
 10
3719.6790421905948
 20
1476.3917698951259
 30
0.0
 40
7.0
 50
0.0
 51
70.196575178173177
  0
ARC
  5
5786
  8
0
 10
3721.3730129917949
 20
1481.0960724921831
 30
0.0
 40
2.0
 50
70.196575178173177
 51
100.64752461533671
  0
LINE
  5
5787
  8
0
 10
3721.0034798042152
 20
1483.0616373533051
 30
0.0
 11
3715.1264649085142
 21
1481.956737641867
 31
0.0
  0
ARC
  5
5788
  8
0
 10
3714.7569317209341
 20
1483.9223025029889
 30
0.0
 40
2.0
 50
255.0000000000056
 51
280.64752461533681
  0
ARC
  5
5789
  8
0
 10
3675.9264909045119
 20
1497.432716302724
 30
0.0
 40
5.0
 50
165.00000000000551
 51
255.0000000000056
  0
LINE
  5
578A
  8
0
 10
3671.8733189083741
 20
1501.6245890071041
 30
0.0
 11
3671.0968617730659
 21
1498.726811528237
 31
0.0
  0
LINE
  5
578B
  8
0
 10
3666.7155203777029
 20
1497.830236056069
 30
0.0
 11
3664.6449680168839
 21
1490.102829445756
 31
0.0
  0
ARC
  5
578C
  8
0
 10
3670.5792236828602
 20
1496.7949598756579
 30
0.0
 40
4.0
 50
75.000000000005556
 51
165.00000000000551
  0
LINE
  5
578D
  8
0
 10
3666.0084135965171
 20
1499.0549809274601
 30
0.0
 11
3663.6790421905962
 21
1490.3616484908589
 31
0.0
  0
LINE
  5
578E
  8
0
 10
3663.6790421905962
 20
1490.3616484908589
 30
0.0
 11
3664.6449680168839
 21
1490.102829445756
 31
0.0
  0
LINE
  5
578F
  8
0
 10
3671.6144998632708
 20
1500.6586631808141
 30
0.0
 11
3671.6144998632722
 21
1500.6586631808141
 31
0.0
  0
LINE
  5
5790
  8
0
 10
3714.2392936307019
 20
1481.990450850418
 30
0.0
 11
3674.6323956789988
 21
1492.603087171279
 31
0.0
  0
LINE
  5
5791
  8
0
 10
3733.6790400787058
 20
1495.438383382276
 30
0.0
 11
3724.6790400787058
 21
1495.438383382276
 31
0.0
  0
LINE
  5
5792
  8
0
 10
3724.6790400787058
 20
1495.438383382276
 30
0.0
 11
3733.6790400787058
 21
1495.438383382276
 31
0.0
  0
ARC
  5
5793
  8
0
 10
3724.6790400787058
 20
1492.438383382276
 30
0.0
 40
3.0
 50
90.0
 51
180.0
  0
LINE
  5
5794
  8
0
 10
3731.6790400787058
 20
1495.438383382276
 30
0.0
 11
3731.6790400787072
 21
1500.22840483502
 31
0.0
  0
ARC
  5
5795
  8
0
 10
3724.6790400787072
 20
1500.22840483502
 30
0.0
 40
7.0
 50
0.0
 51
75.000000000005556
  0
LINE
  5
5796
  8
0
 10
3726.4907733944251
 20
1506.9898856190439
 30
0.0
 11
3670.9073909701938
 21
1521.8834080522061
 31
0.0
  0
ARC
  5
5797
  8
0
 10
3669.872114789785
 20
1518.0197047470499
 30
0.0
 40
4.0
 50
75.000000000005556
 51
165.00000000000551
  0
LINE
  5
5798
  8
0
 10
3726.6790400787058
 20
1495.438383382276
 30
0.0
 11
3726.6790400787058
 21
1496.3917698951259
 31
0.0
  0
ARC
  5
5799
  8
0
 10
3719.6790400787058
 20
1496.3917698951259
 30
0.0
 40
7.0
 50
0.0
 51
70.196575178173177
  0
ARC
  5
579A
  8
0
 10
3721.3730108799059
 20
1501.096072492184
 30
0.0
 40
2.0
 50
70.196575178173177
 51
100.64752461533671
  0
LINE
  5
579B
  8
0
 10
3721.0034776923262
 20
1503.0616373533051
 30
0.0
 11
3715.1264627966239
 21
1501.956737641867
 31
0.0
  0
ARC
  5
579C
  8
0
 10
3714.7569296090451
 20
1503.9223025029889
 30
0.0
 40
2.0
 50
255.0000000000056
 51
280.64752461533681
  0
ARC
  5
579D
  8
0
 10
3675.926488792622
 20
1517.432716302724
 30
0.0
 40
5.0
 50
165.00000000000551
 51
255.0000000000056
  0
LINE
  5
579E
  8
0
 10
3671.8733167964851
 20
1521.6245890071041
 30
0.0
 11
3671.096859661176
 21
1518.726811528237
 31
0.0
  0
LINE
  5
579F
  8
0
 10
3666.7155182658139
 20
1517.830236056069
 30
0.0
 11
3664.6449659049949
 21
1510.102829445756
 31
0.0
  0
ARC
  5
57A0
  8
0
 10
3670.5792215709712
 20
1516.7949598756579
 30
0.0
 40
4.0
 50
75.000000000005556
 51
165.00000000000551
  0
LINE
  5
57A1
  8
0
 10
3666.0084114846281
 20
1519.0549809274601
 30
0.0
 11
3663.6790400787058
 21
1510.3616484908589
 31
0.0
  0
LINE
  5
57A2
  8
0
 10
3663.6790400787058
 20
1510.3616484908589
 30
0.0
 11
3664.6449659049949
 21
1510.102829445756
 31
0.0
  0
LINE
  5
57A3
  8
0
 10
3671.6144977513809
 20
1520.658663180815
 30
0.0
 11
3671.6144977513818
 21
1520.658663180815
 31
0.0
  0
LINE
  5
57A4
  8
0
 10
3714.239291518812
 20
1501.990450850418
 30
0.0
 11
3674.6323935671089
 21
1512.603087171279
 31
0.0
  0
LINE
  5
57A5
  8
0
 10
3721.6790400787058
 20
1492.438383382276
 30
0.0
 11
3721.6790400787058
 21
1489.0332029946301
 31
0.0
  0
LINE
  5
57A6
  8
0
 10
3733.6790400787058
 20
1495.438383382276
 30
0.0
 11
3733.6790400787058
 21
1488.2959016099439
 31
0.0
  0
CIRCLE
  5
57A7
  8
0
 10
3727.1790421905948
 20
1458.4383833822751
 30
0.0
 40
4.0
  0
CIRCLE
  5
57A8
  8
0
 10
3727.1790421905948
 20
1443.4383833822751
 30
0.0
 40
4.0
  0
DIMENSION
  5
57A9
  8
0
  2
*D12
 10
3585.4373724542138
 20
1207.018372386098
 30
0.0
 11
3585.4373724542138
 21
1364.5183723875109
 31
0.0
 70
   128
 13
3669.7688816079371
 23
1522.0183723889229
 33
0.0
 14
3669.872116986749
 24
1207.018372386098
 34
0.0
 50
90.0
1001
ACAD
1000
DSTYLE
1002
{
1070
   147
1040
5.0
1070
    42
1040
5.0
1070
    44
1040
5.0
1070
   140
1040
15.0
1070
    41
1040
10.0
1002
}
  0
DIMENSION
  5
57AA
  8
0
  2
*D13
 10
3619.5282906129851
 20
1207.0183723861039
 30
0.0
 11
3619.5282906129851
 21
1354.5183723875141
 31
0.0
 70
   128
 13
3669.9753500835209
 23
1502.0183723889229
 33
0.0
 14
3669.8721233674828
 24
1207.0183723861039
 34
0.0
 50
90.0
1001
ACAD
1000
DSTYLE
1002
{
1070
   147
1040
5.0
1070
    42
1040
5.0
1070
    44
1040
5.0
1070
   140
1040
15.0
1070
    41
1040
10.0
1002
}
  0
INSERT
  5
57AC
  8
0
  2
*U29
 10
0.0
 20
0.0
 30
0.0
1001
ACAD_MLEADERVER
1070
     2
  0
DIMENSION
  5
57AD
  8
0
  2
*D14
 10
3733.6790400787058
 20
1567.5787710568029
 30
0.0
 11
3698.6790383150101
 21
1580.0787710568029
 31
0.0
 70
     0
 13
3663.6790365513129
 23
1510.3616484908609
 33
0.0
 14
3733.6790400787058
 24
1495.438383382276
 34
0.0
1001
ACAD
1000
DSTYLE
1002
{
1070
    41
1040
10.0
1070
    42
1040
5.0
1070
    44
1040
5.0
1070
   147
1040
5.0
1070
   140
1040
15.0
1002
}
  0
LINE
  5
57AE
  8
0
 10
4064.4717740080951
 20
1475.4383833822751
 30
0.0
 11
4064.4717740080951
 21
1238.4383833822751
 31
0.0
  0
LINE
  5
57AF
  8
0
 10
4064.4717740080951
 20
1475.4383833822751
 30
0.0
 11
4091.4717740080951
 21
1475.4383833822751
 31
0.0
  0
LINE
  5
57B0
  8
0
 10
4091.4717740080951
 20
1475.4383833822751
 30
0.0
 11
4091.4717740080951
 21
1238.4383833822751
 31
0.0
  0
LINE
  5
57B1
  8
0
 10
4091.4717740080951
 20
1238.4383833822751
 30
0.0
 11
4064.4717740080951
 21
1238.4383833822751
 31
0.0
  0
LINE
  5
57B2
  8
0
 10
4066.9717740080941
 20
1475.4383833822751
 30
0.0
 11
4066.9717740080941
 21
1502.0183723889229
 31
0.0
  0
LINE
  5
57B3
  8
0
 10
4066.9717740080941
 20
1502.0183723889229
 30
0.0
 11
4088.9717740080951
 21
1502.0183723889229
 31
0.0
  0
LINE
  5
57B4
  8
0
 10
4088.9717740080951
 20
1502.0183723889229
 30
0.0
 11
4088.9717740080951
 21
1475.4383833822751
 31
0.0
  0
LINE
  5
57B5
  8
0
 10
4066.9717740080941
 20
1238.4383833822751
 30
0.0
 11
4066.9717740080941
 21
1207.018372388924
 31
0.0
  0
LINE
  5
57B6
  8
0
 10
4066.9717740080941
 20
1207.018372388924
 30
0.0
 11
4088.9717740080951
 21
1207.018372388924
 31
0.0
  0
LINE
  5
57B7
  8
0
 10
4088.9717740080951
 20
1207.018372388924
 30
0.0
 11
4088.9717740080951
 21
1238.4383833822751
 31
0.0
  0
LINE
  5
57B8
  8
0
 10
4066.9717740080941
 20
1507.0183723889229
 30
0.0
 11
4066.9717740080941
 21
1522.018372388922
 31
0.0
  0
LINE
  5
57B9
  8
0
 10
4066.9717740080941
 20
1522.018372388922
 30
0.0
 11
4088.9717740080951
 21
1522.0183723889229
 31
0.0
  0
LINE
  5
57BA
  8
0
 10
4088.9717740080951
 20
1522.0183723889229
 30
0.0
 11
4088.9717740080928
 21
1507.0183723889229
 31
0.0
  0
ARC
  5
57BB
  8
0
 10
4077.9717740080951
 20
1365.4383833822751
 30
0.0
 40
3.5
 50
0.0
 51
180.0
  0
CIRCLE
  5
57BC
  8
0
 10
4077.9717740080951
 20
1278.4383833822751
 30
0.0
 40
3.5
  0
ARC
  5
57BD
  8
0
 10
4077.9717740080951
 20
1350.9383833822751
 30
0.0
 40
6.0
 50
125.6853347126402
 51
54.314665287359773
  0
LINE
  5
57BE
  8
0
 10
4074.4717740080941
 20
1365.4383833822751
 30
0.0
 11
4074.4717740080941
 21
1355.8117805546799
 31
0.0
  0
LINE
  5
57BF
  8
0
 10
4081.4717740080951
 20
1365.4383833822751
 30
0.0
 11
4081.4717740080951
 21
1355.8117805546799
 31
0.0
  0
CIRCLE
  5
57C0
  8
0
 10
4077.9717740080951
 20
1374.9383833822751
 30
0.0
 40
1.5
  0
LINE
  5
57C1
  8
0
 10
4077.9717740080951
 20
1374.9383833822751
 30
0.0
 11
4077.9443023166191
 21
1381.938329475365
 31
0.0
  0
CIRCLE
  5
57C2
  8
0
 10
4077.9443023166191
 20
1381.938329475365
 30
0.0
 40
1.5
  0
DIMENSION
  5
57C4
  8
0
  2
*D15
 10
4091.4717740080941
 20
1572.0183723889229
 30
0.0
 11
4077.9717729437889
 21
1572.0183723889229
 31
0.0
 70
   128
 13
4064.471771879485
 23
1522.018372388922
 33
0.0
 14
4091.4717740080941
 24
1522.0183723889229
 34
0.0
1001
ACAD
1000
DSTYLE
1002
{
1070
    41
1040
10.0
1070
    42
1040
5.0
1070
    44
1040
5.0
1070
   147
1040
5.0
1070
   140
1040
15.0
1002
}
  0
DIMENSION
  5
57C5
  8
0
  2
*D16
 10
3782.826584908355
 20
1475.4383833822751
 30
0.0
 11
3782.826584908355
 21
1439.1883833822751
 31
0.0
 70
   128
 13
3749.0887081056462
 23
1495.438383382276
 33
0.0
 14
3749.0887081056462
 24
1475.4383833822751
 34
0.0
 50
90.0
1001
ACAD
1000
DSTYLE
1002
{
1070
   147
1040
5.0
1070
    42
1040
5.0
1070
    44
1040
5.0
1070
   140
1040
15.0
1070
    41
1040
10.0
1002
}
  0
INSERT
  5
57C6
  8
0
  2
*U30
 10
0.0
 20
0.0
 30
0.0
1001
ACAD_MLEADERVER
1070
     2
  0
LINE
  5
8E72
  8
0
 10
3700.603351727827
 20
1365.4383833822751
 30
0.0
 11
4107.0545137338022
 21
1365.4383833822751
 31
0.0
  0
LINE
  5
8E73
  8
0
 10
4103.4824732482766
 20
1278.4383833822751
 30
0.0
 11
3706.6362055097238
 21
1278.4383833822751
 31
0.0
  0
DIMENSION
  5
A51D
  8
0
  2
*D19
 10
4203.513606629318
 20
1207.018372388924
 30
0.0
 11
4203.513606629318
 21
1286.228377885599
 31
0.0
 70
   128
  1
158
 13
4107.0545137338022
 23
1365.4383833822751
 33
0.0
 14
4088.9717740080951
 24
1207.018372388924
 34
0.0
 50
90.0
1001
ACAD
1000
DSTYLE
1002
{
1070
   147
1040
5.0
1070
    42
1040
5.0
1070
    44
1040
5.0
1070
   140
1040
15.0
1070
    41
1040
10.0
1002
}
  0
DIMENSION
  5
A59E
  8
0
  2
*D20
 10
4153.5136137187656
 20
1207.018372388924
 30
0.0
 11
4153.5136137187656
 21
1242.728380284562
 31
0.0
 70
   128
  1
71
 13
4103.513606629318
 23
1278.4383833822751
 33
0.0
 14
4088.9717740080951
 24
1207.018372388924
 34
0.0
 50
90.0
1001
ACAD
1000
DSTYLE
1002
{
1070
   147
1040
5.0
1070
    42
1040
5.0
1070
    44
1040
5.0
1070
   140
1040
15.0
1070
    41
1040
10.0
1002
}
  0
DIMENSION
  5
A626
  8
0
  2
*D21
 10
3450.8235635545238
 20
1207.018377186846
 30
0.0
 11
3450.8235635545229
 21
1436.2283802845591
 31
0.0
 70
   128
  1
458
 13
3354.3644706590071
 23
1665.438383382271
 33
0.0
 14
3336.2817309332991
 24
1207.018377186846
 34
0.0
 50
90.0
1001
ACAD
1000
DSTYLE
1002
{
1070
   147
1040
5.0
1070
    42
1040
5.0
1070
    44
1040
5.0
1070
   140
1040
15.0
1070
    41
1040
10.0
1002
}
  0
DIMENSION
  5
A627
  8
0
  2
*D22
 10
3400.8235706439718
 20
1207.018377186846
 30
0.0
 11
3400.8235706439709
 21
1242.7283850824849
 31
0.0
 70
   128
  1
71
 13
3350.823563554522
 23
1278.4383881801971
 33
0.0
 14
3336.2817309332991
 24
1207.018377186846
 34
0.0
 50
90.0
1001
ACAD
1000
DSTYLE
1002
{
1070
   147
1040
5.0
1070
    42
1040
5.0
1070
    44
1040
5.0
1070
   140
1040
15.0
1070
    41
1040
10.0
1002
}
  0
DIMENSION
  5
A681
  8
0
  2
*D23
 10
3366.767388461526
 20
1207.018370785406
 30
0.0
 11
3366.7673884615251
 21
1231.728377083839
 31
0.0
 70
   128
  1
49
 13
3349.281858204919
 23
1256.4383833822719
 33
0.0
 14
3336.2817177125821
 24
1207.018370785406
 34
0.0
 50
90.0
1001
ACAD
1000
DSTYLE
1002
{
1070
   147
1040
5.0
1070
    42
1040
5.0
1070
    44
1040
5.0
1070
   140
1040
15.0
1070
    41
1040
10.0
1002
}
  0
CIRCLE
  5
A6D7
  8
0
 10
4077.9717740080951
 20
1256.438381305546
 30
0.0
 40
3.5
  0
LINE
  5
A6D8
  8
0
 10
4101.9719043540681
 20
1256.438381305546
 30
0.0
 11
3709.1062839133128
 21
1256.438381305546
 31
0.0
  0
DIMENSION
  5
A6D9
  8
0
  2
*D24
 10
4119.4574346106747
 20
1207.018368708681
 30
0.0
 11
4119.4574346106747
 21
1231.7283750071131
 31
0.0
 70
   128
  1
49
 13
4101.9719043540681
 23
1256.438381305546
 33
0.0
 14
4088.9717638617308
 24
1207.018368708681
 34
0.0
 50
90.0
1001
ACAD
1000
DSTYLE
1002
{
1070
   147
1040
5.0
1070
    42
1040
5.0
1070
    44
1040
5.0
1070
   140
1040
15.0
1070
    41
1040
10.0
1002
}
  0
ENDSEC
  0
EOF
